osu file format v4

[General]
AudioFilename: Make Progress -Instrumental-.mp3
AudioLeadIn: 0
AudioHash: 69a775f4e4f2ab125a2c449abc51ef85
PreviewTime: -1
Countdown: 1
SampleSet: Normal
EditorBookmarks: 6988,14436,33885

[Metadata]
Title:Make Progress -Instrumental-
Artist:Tamaki Nami
Creator:James
Version:Insane

[Difficulty]
HPDrainRate:7
CircleSize:7
OverallDifficulty:7
SliderMultiplier: 1.6
SliderTickRate: 1

[Events]
//Background and Video events
0,-100000,"Nami.png"
//Break Periods
//Storyboard Layer 0 (Background)
4,0,0,"info.png",5,425 F,0,0,1000,0,1 M,1,0,1000,-50,425,5,425 F,0,5000,6000,1,0 M,1,5000,6000,5,425,-50,425
//Storyboard Layer 1 (Failing)
//Storyboard Layer 2 (Passing)
//Storyboard Layer 3 (Foreground)
//Storyboard Sound Samples
//Background Colour Transformations
3,100,163,162,255

[TimingPoints]
8236,413.793103448276,4,1,0,100

[Colours]
Combo1 : 236,80,34
Combo2 : 253,49,222
Combo3 : 252,124,249
Combo4 : 240,5,5

[HitObjects]
120,48,8235,5,0
160,48,8442,2,0,B|160:48|256:48,2,80
160,112,9270,2,0,B|160:112|256:112,1,80
280,112,9683,1,0
280,176,10097,1,0
320,176,10304,1,0
360,176,10511,1,0
360,240,10925,1,0
320,240,11132,2,0,B|320:240|224:240,1,80
200,240,11545,5,0
128,240,12166,2,0,B|128:240|128:144,1,80
64,160,12787,1,0
64,96,13201,2,0,B|64:96|152:96,1,80
256,192,13614,12,0,14441
424,72,14856,1,0
424,192,15476,1,0
424,312,16097,1,0
304,312,16718,1,0
264,312,16925,2,0,B|264:312|96:312,1,160
264,312,17753,1,0
96,312,18166,5,0
96,192,18787,1,0
96,72,19407,1,0
216,72,20028,1,0
256,72,20235,2,0,B|256:72|440:72,1,160
256,72,21063,1,0
136,192,21476,5,0
256,312,22097,1,0
376,192,22718,1,0
256,72,23339,1,0
256,112,23546,2,0,B|256:112|256:304,1,160
256,112,24373,1,0
336,168,24787,1,0
176,168,25201,1,0
336,232,25615,1,0
176,232,26029,1,0
256,192,26442,5,0
256,192,26545,1,0
256,192,26649,1,0
256,192,26752,1,0
256,192,26856,5,0
256,192,26959,1,0
256,192,27063,1,0
256,192,27167,1,0
256,192,27270,5,0
256,192,27373,1,0
256,192,27476,1,0
256,192,27580,1,0
256,192,27683,1,0
256,192,27787,1,0
256,192,27890,1,0
256,192,27994,1,0
256,192,28097,5,0
184,128,28718,1,0
112,192,29339,1,0
40,128,29959,1,0
40,168,30166,2,0,B|40:168|224:168,1,160
40,168,30994,1,0
72,128,31407,5,0
96,160,31614,1,0
120,128,31821,1,0
144,160,32028,1,0
168,128,32235,1,0
192,160,32442,1,0
216,128,32649,1,0
240,160,32856,1,0
264,128,33063,1,0
256,192,33270,12,0,34304
376,48,34718,2,0,B|376:48|472:48,1,80
376,48,35132,1,0
376,88,35442,1,0
376,88,35545,2,0,B|376:88|272:88,1,80
256,88,35959,1,0
256,144,36270,2,0,B|256:144|232:144,1,40
216,184,36580,2,0,B|216:184|120:184,1,80
136,240,37098,1,0
136,240,37201,2,0,B|136:240|240:240,1,80
136,240,37615,1,0
360,240,37925,5,0
360,240,38028,2,0,B|360:240|360:352,1,80
360,240,38442,1,0
304,240,38752,2,0,B|304:240|304:192,1,40
304,160,39063,1,0
304,120,39270,1,0
240,120,39580,1,0
240,120,39683,1,0
240,160,39890,1,0
240,200,40097,1,0
176,200,40407,1,0
176,200,40511,1,0
176,160,40718,2,0,B|176:160|176:40,1,80
176,160,41132,1,0
120,304,41339,6,0,B|120:304|224:304,1,80
240,304,41752,1,0
240,240,42063,2,0,B|240:240|296:240,1,40
280,200,42373,2,0,B|280:200|184:200,1,80
200,136,42890,1,0
200,136,42994,1,0
240,136,43201,1,0
280,136,43407,1,0
280,72,43718,1,0
280,72,43822,2,0,B|280:72|184:72,1,80
280,72,44236,1,0
64,72,44545,6,0,B|64:72|64:128,1,40
64,152,44856,1,0
64,192,45063,1,0
120,192,45373,1,0
120,192,45476,2,0,B|120:192|120:288,1,80
120,192,45891,1,0
176,192,46201,2,0,B|176:192|176:168,1,40
216,152,46511,2,0,B|216:152|216:248,1,80
296,232,47132,5,0
328,200,47339,1,0
360,168,47545,1,0
392,136,47752,1,0
424,104,47959,6,0,B|424:104|496:24,1,80
424,104,48373,1,0
368,80,48683,2,0,B|368:80|344:112,1,40
304,96,48994,2,0,B|304:96|240:184,1,80
304,192,49511,1,0
304,192,49614,2,0,B|304:192|240:280,1,80
304,192,50029,1,0
248,168,50339,2,0,B|248:168|216:216,1,40
184,192,50649,2,0,B|184:192|136:264,1,80
168,312,51166,5,0
168,312,51270,2,0,B|168:312|64:312,1,80
168,312,51684,1,0
200,264,51994,1,0
200,264,52097,2,0,B|200:264|296:264,1,80
320,264,52511,1,0
352,216,52821,1,0
352,216,52925,2,0,B|352:216|448:216,1,80
352,216,53339,1,0
320,168,53649,1,0
320,168,53752,2,0,B|320:168|232:168,3,80
216,136,54580,5,0
192,168,54787,1,0
168,136,54994,1,0
128,176,55304,1,0
128,176,55407,1,0
96,200,55614,1,0
128,224,55821,1,0
96,272,56132,2,0,B|96:272|144:312,1,40
168,296,56442,2,0,B|168:296|232:224,1,80
264,272,56959,1,0
264,272,57063,1,0
288,304,57270,1,0
312,272,57476,1,0
320,192,57891,5,0
320,112,58098,1,0
240,112,58304,1,0
240,192,58511,1,0
160,192,58718,1,0
160,112,58925,1,0
80,112,59132,1,0
80,192,59339,1,0
104,224,59545,5,0
128,256,59752,1,0
152,224,59959,1,0
176,256,60166,1,0
200,224,60373,1,0
224,256,60580,1,0
248,224,60787,1,0
272,256,60994,1,0
296,224,61201,6,0,B|296:224|392:224,1,80
296,224,61615,1,0
296,160,61925,1,0
296,160,62028,2,0,B|296:160|208:160,1,80
176,160,62442,1,0
176,96,62752,5,0
176,96,62856,2,0,B|176:96|272:96,1,80
176,96,63270,1,0
112,96,63580,2,0,B|112:96|112:160,1,40
80,160,63890,2,0,B|80:160|80:272,1,80
120,288,64407,6,0,B|120:288|160:288,1,40
184,256,64718,2,0,B|184:256|272:256,1,80
304,208,65235,6,0,B|304:208|304:160,1,40
272,144,65545,2,0,B|272:144|272:40,1,80
256,192,66166,12,0,69269
