osu file format v4

[General]
AudioFilename: Make Progress -Instrumental-.mp3
AudioLeadIn: 0
AudioHash: 69a775f4e4f2ab125a2c449abc51ef85
PreviewTime: -1
Countdown: 1
SampleSet: Normal
EditorBookmarks: 6988,14436,33885

[Metadata]
Title:Make Progress -Instrumental-
Artist:Tamaki Nami
Creator:James
Version:Hard

[Difficulty]
HPDrainRate:2
CircleSize:5
OverallDifficulty:5
SliderMultiplier: 1.5
SliderTickRate: 1

[Events]
//Background and Video events
0,-100000,"Nami.png"
//Break Periods
//Storyboard Layer 0 (Background)
4,0,0,"info.png",5,425 F,0,0,1000,0,1 M,1,0,1000,-50,425,5,425 F,0,5000,6000,1,0 M,1,5000,6000,5,425,-50,425
//Storyboard Layer 1 (Failing)
//Storyboard Layer 2 (Passing)
//Storyboard Layer 3 (Foreground)
//Storyboard Sound Samples
//Background Colour Transformations
3,100,163,162,255

[TimingPoints]
8236,413.793103448276,4,1,0,100

[Colours]
Combo1 : 236,80,34
Combo2 : 253,49,222
Combo3 : 252,124,249
Combo4 : 240,5,5

[HitObjects]
120,48,8235,5,0
160,48,8442,2,0,B|160:48|240:48,2,75
160,112,9270,2,0,B|160:112|240:112,1,75
280,112,9683,1,0
280,176,10097,1,0
320,176,10304,1,0
360,176,10511,1,0
360,240,10925,1,0
320,240,11132,2,0,B|320:240|224:240,1,75
200,240,11545,5,0
128,240,12166,2,0,B|128:240|128:144,1,75
64,160,12787,1,0
64,96,13201,2,0,B|64:96|144:96,1,75
256,192,13614,12,0,14442
424,72,14856,1,0
424,192,15476,1,0
424,312,16097,1,0
304,312,16718,1,0
264,312,16925,2,0,B|264:312|104:312,2,150
96,312,18166,5,0
96,192,18787,1,0
96,72,19407,1,0
216,72,20028,1,0
256,72,20235,2,0,B|256:72|432:72,2,150
136,192,21476,5,0
256,312,22097,1,0
376,192,22718,1,0
256,72,23339,1,0
256,112,23545,6,0,B|256:112|256:296,2,150
336,168,24787,2,0,B|336:168|168:168,1,150
176,232,25614,2,0,B|176:232|344:232,1,150
256,152,26442,6,0,B|256:152|256:192,15,37.5
256,192,28097,5,0
184,128,28718,1,0
112,192,29339,1,0
40,128,29959,1,0
40,168,30166,2,0,B|40:168|216:168,2,150
256,192,31407,6,0,B|256:192|284:193|296:215|283:234|256:227|240:208,8,75
256,192,33270,12,0,34304
376,48,34718,2,0,B|376:48|472:48,2,75
376,120,35545,1,0
336,120,35752,2,0,B|336:120|256:120,1,75
256,192,36373,2,0,B|256:192|144:192,1,75
144,192,36787,1,0
144,264,37201,2,0,B|144:264|224:264,2,75
360,240,38028,6,0,B|360:240|360:352,2,75
288,240,38856,1,0
288,200,39063,1,0
288,160,39270,1,0
216,160,39683,1,0
216,200,39890,1,0
216,240,40097,1,0
144,240,40511,1,0
144,200,40718,2,0,B|144:200|144:88,2,75
144,304,41339,6,0,B|144:304|224:304,1,75
256,304,41752,1,0
256,232,42166,1,0
296,232,42373,2,0,B|296:232|392:232,1,75
368,160,42994,1,0
328,160,43201,1,0
288,160,43407,1,0
216,160,43821,2,0,B|216:160|104:160,2,75
64,112,44649,5,0
64,152,44856,1,0
64,192,45063,1,0
120,192,45476,2,0,B|120:192|120:288,2,75
192,192,46304,2,0,B|192:192|192:96,2,75
280,160,47132,6,0,B|280:160|368:160,3,75
424,104,47959,6,0,B|424:104|424:8,2,75
352,104,48787,2,0,B|352:104|256:104,1,75
240,104,49201,1,0
168,104,49614,2,0,B|168:104|168:192,1,75
168,216,50028,1,0
240,216,50442,2,0,B|240:216|344:216,2,75
168,312,51270,6,0,B|168:312|64:312,2,75
200,264,52097,2,0,B|200:264|288:264,1,75
320,264,52511,1,0
352,216,52925,2,0,B|352:216|448:216,2,75
320,168,53752,2,0,B|320:168|240:168,3,75
216,136,54580,5,0
192,168,54787,1,0
168,136,54994,1,0
112,192,55407,1,0
80,216,55614,1,0
112,232,55821,1,0
152,296,56235,1,0
176,320,56442,1,0
200,296,56649,1,0
272,280,57063,1,0
296,312,57270,1,0
320,280,57476,1,0
320,200,57890,2,0,B|320:200|386:155|288:98|249:191|352:208,3,150
288,248,59545,6,0,B|288:248|282:272|292:292|321:285|324:257|304:240,7,75
392,232,61201,6,0,B|392:232|488:232,2,75
392,168,62028,2,0,B|392:168|304:168,1,75
272,168,62442,1,0
272,104,62856,6,0,B|272:104|368:104,2,75
208,104,63580,2,0,B|208:104|208:168,1,37.5
176,168,63890,2,0,B|176:168|176:280,1,75
216,296,64407,6,0,B|216:296|256:296,1,37.5
280,264,64718,2,0,B|280:264|368:264,1,75
400,216,65235,6,0,B|400:216|400:168,1,37.5
368,152,65545,2,0,B|368:152|368:48,1,75
256,192,66166,12,0,69269
