osu file format v5

[General]
AudioFilename: Daitan Ni Ikimashou.MP3
AudioLeadIn: 0
AudioHash: 26286c92fa724d2a5fe2c8fafc892b27
PreviewTime: -1
Countdown: 1
SampleSet: Normal
EditorBookmarks: 6719,38189,65627,69464,94756,124131,131181,159216,159343

[Metadata]
Title:Daitan ni Ikimashou
Artist:Tamaki Nami
Creator:James
Version:Hard

[Difficulty]
HPDrainRate:7
CircleSize:5
OverallDifficulty:5
SliderMultiplier:1.3
SliderTickRate:2

[Events]
//Background and Video events
1,-476,"final.avi"
//Break Periods
2,98734,108076
//Storyboard Layer 0 (Background)
4,0,0,"info.png",525,410 F,0,24,1024,0,1 M,1,24,1024,-280,410,280,410 F,0,6024,7024,1,0 M,1,6024,7024,280,410,640,410
//Storyboard Layer 1 (Failing)
//Storyboard Layer 2 (Passing)
//Storyboard Layer 3 (Foreground)
//Storyboard Sound Samples
//Background Colour Transformations
3,148,161,160,252

[TimingPoints]
566,438.436244062843,4,1,0,80

[Colours]
Combo1 : 51,192,247
Combo2 : 0,0,121
Combo3 : 169,222,254
Combo4 : 255,255,255

[HitObjects]
152,112,5827,5,2
368,112,6265,1,2
256,288,6704,1,2
424,88,7580,5,0
352,192,8019,1,0
272,88,8457,1,0
192,192,8896,1,2
112,88,9334,1,0
32,192,9773,1,0
112,296,10211,1,0
238,296,10650,1,2
368,296,11088,6,0,B|368:296|216:296,1,130
160,192,11965,2,0,B|160:192|320:192,1,130
368,88,12842,2,0,B|368:88|232:88,1,130
368,88,13719,1,2
448,192,14157,5,0
448,312,14595,5,0
320,312,15034,1,0
192,312,15472,1,2
64,312,15911,1,2
64,248,16130,1,0
64,184,16349,1,0
192,184,16788,1,0
320,184,17226,1,2
448,184,17665,1,2
448,120,17884,1,0
448,56,18103,1,0
320,56,18541,1,0
192,56,18980,1,2
64,56,19418,1,2
64,120,19637,1,0
64,184,19857,1,0
64,312,20295,1,2
192,312,20734,1,2
104,224,21391,5,2
296,224,22049,1,2
192,56,22707,1,2
192,120,22926,1,2
192,184,23145,1,2
192,248,23364,1,6
240,288,23583,2,0,B|240:288|301:292|377:255|416:191|408:104,1,260
416,64,24679,2,0,B|416:64|336:57|244:69|169:158|176:320,1,390
360,328,27091,5,0
256,240,27529,1,0
320,240,27749,1,0
208,176,28187,2,0,B|208:176|304:176,1,65
304,120,28625,2,0,B|304:120|232:120,1,65
200,64,29064,2,0,B|200:64|344:64,1,130
48,48,30598,5,0
152,128,31037,2,0,B|152:128|240:128,1,65
248,184,31475,2,0,B|248:184|176:184,1,65
216,240,31914,2,0,B|216:240|296:240,1,65
360,344,32571,2,0,B|360:344|216:344,1,130
216,40,34106,6,0,B|216:40|304:24|336:112,1,130
352,152,34764,2,0,B|352:152|289:146|218:164|164:211|176:304,1,260
296,336,36079,2,0,B|296:336|355:343|388:312|392:256,1,130
408,72,37175,1,0
256,192,37833,1,0
144,112,38490,6,2,B|144:112|127:88|152:61|200:104,1,65
256,192,39148,5,0
152,112,39586,1,0
256,40,40025,1,0
360,112,40463,1,0
376,176,40682,1,0
328,296,41121,1,0
200,296,41559,1,0
40,104,42436,5,0
80,152,42655,1,0
200,104,43094,1,0
280,200,43532,1,0
328,240,43751,1,0
280,280,43971,1,0
232,240,44190,1,0
384,112,44848,1,0
280,192,45286,1,0
224,224,45505,6,2,B|224:224|199:234|184:236|184:176,1,65
192,64,46163,6,2,B|192:64|336:64,2,130
221,191,47478,1,2
293,191,47697,1,2
317,319,48136,2,2,B|317:319|181:319,1,130
80,80,49451,5,0
80,144,49670,2,0,B|80:144|80:280,1,130
200,232,50547,1,0
200,168,50766,1,0
200,104,50986,1,0
256,80,51205,2,0,B|256:80|256:136|256:184|256:216|256:256|256:296,1,195
384,272,52301,1,0
384,144,52739,1,0
384,80,52959,1,0
320,80,53178,5,2
232,176,53616,1,2
152,280,54055,1,2
112,232,54274,1,2
152,184,54493,1,2
32,128,54932,1,6
72,80,55151,5,0
112,128,55370,1,0
240,128,55808,2,0,B|240:128|328:120|320:216,1,130
328,320,56685,2,0,B|328:320|248:320,2,65
456,320,57562,1,0
344,88,58658,6,0,B|344:88|424:88,2,65
320,152,59316,2,0,B|320:152|168:152,1,130
168,216,59974,2,0,B|168:216|72:216,2,65
192,280,60631,2,0,B|192:280|328:280,1,130
416,272,62166,5,0
384,192,62385,1,2
328,128,62604,1,0
256,80,62823,1,2
184,120,63043,1,0
136,192,63262,1,2
112,272,63481,1,0
200,272,63700,2,2,B|200:272|224:272|272:272|320:272|352:272,2,130
96,112,65673,5,0
128,192,65892,1,2
184,256,66111,1,0
256,304,66330,1,2
328,264,66550,1,0
376,192,66769,1,2
400,112,66988,1,0
312,112,67207,2,2,B|312:112|288:112|240:112|192:112|160:112,2,130
112,112,68742,5,0
256,248,69400,1,0
320,64,70058,6,2,B|320:64|349:61|369:78|368:112,1,65
408,224,70715,6,0,B|408:224|452:209|475:164|464:104,2,130
288,272,72031,2,0,B|288:272|273:289|239:293|216:256,1,65
112,224,72688,2,0,B|112:224|68:209|42:167|56:104,1,130
416,88,74004,6,0,B|416:88|416:176,1,65
416,280,74661,1,0
288,280,75100,2,0,B|288:280|288:184,1,65
288,152,75538,2,0,B|288:152|288:56,1,65
88,88,76415,2,0,B|88:88|88:232,1,130
88,280,77073,6,0,B|88:280|160:280,1,65
256,192,77730,12,2,80142
384,280,81019,5,0
448,280,81238,1,0
448,152,81676,1,0
320,152,82115,1,0
320,216,82334,1,0
256,216,82553,1,0
256,152,82772,1,0
56,152,83430,1,0
56,280,83868,1,0
184,280,84307,1,0
256,192,84526,12,2,86499
448,296,86937,5,0
432,232,87157,2,2,B|432:232|412:188|389:148|348:116|295:97|251:85|201:81|160:80,1,325
32,80,88691,1,0
48,144,88910,1,0
128,248,89349,1,2
248,304,89787,1,0
368,248,90226,1,2
456,152,90664,1,0
488,24,91103,1,2
296,24,91760,5,6
168,64,92199,5,0
232,72,92418,2,2,B|232:72|296:88|347:105|383:184|384:280,1,260
248,256,93733,2,2,B|248:256|200:264|144:231|144:168,1,130
320,104,94829,5,0
192,104,95268,1,0
64,104,95706,5,2
120,136,95925,2,2,B|120:136|192:136|272:136|328:136,1,195
352,184,96802,2,2,B|352:184|304:184|240:184|192:184|144:184,1,195
192,232,97679,2,2,B|192:232|248:232|296:232|336:232|400:232,1,195
432,272,98556,1,2
400,88,109298,5,0
232,264,110832,5,2
232,264,111051,5,2
168,96,112586,5,2
168,96,112805,5,2
424,88,114340,5,2
424,88,114559,5,2
296,240,116093,5,2
296,240,116313,5,2
88,296,117847,5,2
88,296,118066,5,2
96,64,119601,5,2
96,64,119820,5,2
256,192,121355,1,2
448,192,123328,5,0
384,192,123547,1,0
320,192,123766,1,0
192,192,124205,1,0
128,192,124424,1,0
64,192,124643,1,0
40,336,125081,5,2
128,240,125520,1,0
216,336,125958,1,2
258,286,126177,1,2
304,240,126397,1,2
400,152,126835,1,0
480,48,127274,1,0
352,48,127712,1,2
310,98,127931,1,2
264,144,128151,1,2
176,48,128589,1,0
88,144,129027,1,0
216,144,129466,1,2
174,194,129685,1,2
128,240,129905,1,2
256,240,130343,1,2
336,344,130781,1,2
416,240,131220,1,2
328,144,131658,5,6
400,40,132096,6,0,B|400:40|448:40|477:76|472:136,2,130
288,104,133412,2,0,B|288:104|252:128|216:96,1,65
112,40,134069,2,0,B|112:40|64:40|35:76|40:136,1,130
40,216,135385,6,0,B|40:216|120:216,1,65
232,216,136042,2,0,B|232:216|271:220|307:208|330:189|336:144,1,130
344,88,136700,2,0,B|344:88|299:86|280:120,2,65
360,280,137796,2,0,B|360:280|288:280|248:280|216:280,1,130
168,280,138454,6,2,B|168:280|72:280,1,65
104,152,139111,6,0,B|104:152|92:107|137:87|183:103|160:184,2,130
104,280,140427,2,0,B|104:280|136:280|176:280,1,65
296,280,141084,2,0,B|296:280|344:280|383:248|384:192,1,130
392,48,142400,5,0
392,112,142619,2,0,B|392:112|392:248,1,130
272,200,143496,1,0
272,136,143715,1,0
272,72,143935,1,0
208,64,144154,2,0,B|208:64|208:120|208:168|208:200|208:240,2,162.5
144,64,145469,6,2,B|144:64|98:58|96:112,1,65
104,224,146126,5,0
192,320,146564,1,0
288,232,147003,1,0
200,136,147441,1,0
200,136,147660,1,0
392,152,148099,1,0
312,48,148538,1,0
416,288,149415,5,0
352,288,149634,2,0,B|352:288|192:288,1,130
88,288,150511,2,0,B|88:288|184:288,3,65
192,96,151826,2,0,B|192:96|336:96,1,130
288,152,152484,6,2,B|288:152|216:152,1,65
104,208,153141,5,0
104,336,153580,1,0
232,336,154018,1,0
360,336,154457,1,0
424,336,154676,1,0
424,208,155114,1,0
424,80,155553,1,0
160,80,156430,1,0
96,80,156649,1,0
96,208,157087,1,0
96,336,157526,1,0
160,336,157745,1,0
224,336,157964,1,0
288,336,158183,1,0
280,144,158841,1,0
280,144,159279,1,0
184,56,159718,5,2
64,96,160156,5,2
152,192,160595,1,2
240,96,161033,1,2
256,288,161691,5,2
344,192,162130,1,2
432,288,162568,1,2
256,192,163445,12,0,166294
256,192,166514,5,2
448,192,167171,5,2
448,320,167610,1,2
320,320,168048,1,2
64,192,168706,5,2
64,64,169145,1,2
192,64,169583,1,2
256,192,170460,12,0,173967
256,192,174186,6,2,B|256:192|236:148|284:128|340:152|304:208,2,130
256,320,175502,6,0,B|256:320|233:320|208:305|208:280,1,65
192,224,175940,1,2
192,96,176378,1,2
320,96,176817,1,2
320,232,177255,6,0,B|320:232|368:224|360:168,1,65
368,128,177694,1,2
240,128,178132,1,2
112,128,178571,1,2
112,256,179009,6,0,B|112:256|111:302|176:296,1,65
216,296,179447,1,2
344,296,179886,1,2
344,168,180324,1,2
216,168,180763,5,0
216,104,180982,1,0
280,104,181201,2,2,B|280:104|336:103|368:141|352:200,2,130
152,104,182517,5,0
88,104,182736,1,0
88,168,182955,2,2,B|88:168|86:221|122:258|200:232,2,130
88,296,184270,5,0
152,296,184490,1,0
216,296,184709,2,2,B|216:296|272:296|304:296|336:296|368:296,2,130
256,192,185805,12,2,186243
