osu file format v5

[General]
AudioFilename: Tamaki Nami - Brightdown.mp3
AudioLeadIn: 0
PreviewTime: -1
Countdown: 1
SampleSet: Normal
StackLeniency: 0.7
Mode: 0
LetterboxInBreaks: 1

[Metadata]
Title:Brightdown
Artist:Tamaki Nami
Creator:happy30
Version:Hard
Source:
Tags:

[Difficulty]
HPDrainRate:5
CircleSize:5
OverallDifficulty:7
SliderMultiplier:2.5
SliderTickRate:4

[Events]
//Background and Video events
0,0,"hard.png"
//Break Periods
2,44878,45488
2,74763,89359
2,123476,124384
2,153364,154195
//Storyboard Layer 0 (Background)
//Storyboard Layer 1 (Failing)
//Storyboard Layer 2 (Passing)
//Storyboard Layer 3 (Foreground)
//Storyboard Sound Samples
//Background Colour Transformations
3,100,163,162,255

[TimingPoints]
7122,618.110641804883,4,1,0,100,1
46664,609.223646000447,4,1,0,100,1
80794,618.365453983304,4,1,0,100,1
125300,609.260763606824,4,1,0,100,1
161932,614.754098360656,4,1,0,100,1
188960,608.371187540558,4,1,0,100,1
213338,617.474529175671,4,1,0,100,1

[Colours]
Combo1 : 128,0,0
Combo2 : 0,0,0
Combo3 : 255,0,0
Combo4 : 255,128,0

[HitObjects]
192,192,7122,6,0,L|320:192|192:96,1,250
96,128,8358,6,0,L|32:256|160:256,1,250
256,224,9594,6,0,L|320:352|384:224,2,250
256,192,10985,5,2
256,128,11294,2,2,L|256:64,1,62.5
256,288,12066,5,0
192,224,12530,2,0,L|128:192,1,62.5
141,112,13148,2,0,L|205:80,1,62.5
288,105,13766,2,0,L|320:169,1,62.5
320,224,14230,1,0
328,256,14384,1,0
321,291,14539,2,2,B|257:355|129:355|65:259|65:163|97:99|161:35|257:35|417:35|353:259,1,750
230,189,17011,5,0
128,192,17475,2,0,B|64:192,1,62.5
64,96,18093,2,0,B|160:96,1,62.5
225,92,18711,2,0,B|289:60,1,62.5
349,60,19175,1,0
376,80,19329,1,0
391,112,19484,2,2,B|455:208|455:272|359:336|199:336|135:304|135:144|231:48|487:80|423:336|231:368,1,750
176,288,21956,6,0,B|120:248|184:160|280:224|264:88|136:104,1,250
336,288,23192,2,0,B|392:248|328:160|232:224|248:88|376:104,1,250
320,288,24429,2,0,B|448:224,1,125
448,160,25047,2,0,B|352:64,1,125
288,64,25665,2,2,B|224:96|192:160|224:224|288:288,2,250
384,64,27365,6,0,B|448:96,1,62.5
416,192,27983,2,0,B|384:256,1,62.5
288,256,28601,2,0,B|224:256,4,62.5
288,288,29373,1,2
192,320,29837,2,2,B|96:288|64:160|128:64|288:32|384:64|416:160|352:256,1,562.5
256,256,31846,5,0
192,192,32310,2,0,B|192:128,1,62.5
256,64,32928,2,0,B|320:64,1,62.5
384,128,33546,2,0,B|384:192,1,62.5
384,256,34009,1,0
352,320,34318,2,2,B|288:352|224:320,1,125
196,304,34782,2,2,B|100:240|132:112|196:48|292:48|388:80|356:240|452:176|196:208,1,562.5,2|2
160,256,36791,5,2
160,128,37409,1,2
288,64,38027,1,2
416,128,38645,1,2
352,256,39263,5,2
288,288,39572,1,0
224,288,39881,1,2
160,256,40190,1,0
128,192,40499,1,2
128,128,40809,1,0
160,64,41118,1,2
256,128,41736,6,2,B|384:128,1,125
448,128,42354,1,0
416,192,42663,1,2
352,192,42972,2,0,B|192:192,1,125
160,192,43590,2,0,L|96:224|160:224|96:256|160:256,1,250
192,288,44517,2,2,L|256:288,1,62.5
184,232,46664,6,0,L|280:96|344:160,1,250
392,200,47577,6,0,L|456:264|424:296,1,125
384,288,48034,2,0,L|256:288,1,125
192,288,48643,1,0
120,288,48948,2,2,B|56:224|56:128|120:96|152:64|216:64,1,312.5,2|2
288,64,50014,5,0
352,96,50319,2,0,L|416:96|352:128|416:128,1,187.5
416,192,51080,1,0
448,256,51385,2,2,B|288:320|160:256|128:192,1,312.5
128,160,52451,5,0
160,96,52756,1,0
192,64,52908,2,0,B|320:64,1,125
384,96,53517,1,0
416,160,53822,1,0
456,224,54126,1,0
448,264,54279,2,2,B|352:320|192:320|160:256|160:160,1,375
160,128,55345,5,0
192,64,55650,2,0,B|320:64,1,125
384,64,56259,1,0
416,120,56563,1,0
416,160,56716,2,2,B|352:320|224:320|128:192,1,375
114,165,57782,5,0
101,98,58086,1,0
160,64,58391,1,0
224,64,58696,2,2,B|416:128|160:128|160:160|352:192|384:192|256:256,1,312.5
199,248,59762,5,0
139,215,60066,2,0,B|107:151,1,62.5
128,96,60523,1,0
192,64,60828,1,0
256,64,61133,2,2,B|256:192|320:224|352:64|352:32|416:160|384:224,1,312.5
355,265,62199,5,0
288,288,62503,2,0,B|224:288,1,62.5
160,288,62960,1,0
96,256,63265,1,0
64,192,63569,2,2,B|32:96|64:64|128:224|192:224|96:64|136:96|192:168,1,250
256,152,64483,1,0
320,160,64788,1,0
320,192,64940,5,0
320,224,65093,1,0
320,288,65397,1,0
256,288,65702,2,2,B|192:288,1,62.5
160,288,66006,1,2
64,288,66463,1,0
64,160,67072,5,0
96,96,67377,2,0,B|160:32|224:64|256:128,1,187.5
256,192,68139,1,0
256,256,68443,2,2,B|256:320|320:288|320:128|384:224|352:384|448:352|416:224|384:160,1,312.5
380,118,69509,5,0
320,96,69814,1,0
288,96,69966,2,0,L|256:160|224:96,1,125
160,96,70576,1,0
96,128,70880,2,2,B|64:256|128:288|192:96|288:128|192:256,1,312.5
256,288,71946,5,0
320,288,72251,1,0
352,256,72403,2,0,L|376:191|306:192,1,125
256,192,73012,1,0
192,192,73317,1,0
128,192,73622,1,0
88,192,73774,2,2,B|24:224|56:288|88:320|184:320|216:320|280:320,1,312.5,2|6
256,192,90687,5,0
352,192,91151,2,0,B|352:256,1,62.5
288,320,91769,2,0,B|224:320,1,62.5
160,256,92388,2,0,B|105:214,1,62.5
142,121,93006,2,0,B|174:57,1,62.5
234,86,93470,2,0,B|298:54,1,62.5
359,133,94088,5,2
320,192,94398,2,2,B|224:192,1,62.5,0|2
160,192,95016,2,2,B|96:192,1,62.5
256,320,95634,5,0
320,256,96098,2,0,B|320:192,1,62.5
224,160,96716,2,0,B|266:98,1,62.5
353,90,97335,2,0,B|417:154,1,62.5
416,199,97799,1,0
384,256,98108,5,0
320,288,98417,1,0
320,288,98572,2,0,B|256:320|192:288|160:224,1,187.5,0|2
160,160,99344,2,2,B|160:96,1,62.5,0|2
256,96,99963,2,2,B|320:96,1,62.5
384,160,100581,5,2
384,224,100890,1,0
320,224,101200,1,2
320,288,101509,1,0
256,288,101818,1,2
192,288,102127,1,0
128,288,102436,1,2
128,160,103055,5,2
192,160,103364,1,0
192,96,103673,1,2
256,96,103982,1,0
320,96,104291,1,2
384,96,104601,1,0
384,96,104755,2,2,B|480:160|480:224|416:256,1,187.5
384,288,105528,5,0
288,288,105992,2,0,B|224:288,1,62.5
160,224,106610,2,0,B|160:160,1,62.5
224,96,107229,2,0,B|288:96,1,62.5
352,96,107692,2,0,B|384:160,1,62.5
384,192,108002,1,0
352,256,108311,1,0
352,256,108465,2,0,B|288:320|192:320|160:256,1,187.5
152,264,109084,2,2,B|96:200|72:128|96:48|256:80,1,312.5
352,192,110475,5,0
288,256,110939,2,0,B|224:256,1,62.5
160,192,111557,2,0,B|160:128,1,62.5
224,64,112176,2,0,B|288:64,1,62.5
352,96,112639,1,0
384,160,112949,2,0,B|416:224|320:256,1,125
288,256,113412,2,0,B|208:256|160:216|120:168|112:112|120:72|152:40|224:16|296:16|320:112|272:160|216:176|144:160|88:144|104:48|104:-8|32:-8|0:40|64:160|80:192,1,687.5
96,224,115422,5,2
128,288,115731,1,0
192,320,116040,1,2
256,320,116350,1,0
320,288,116659,1,2
352,224,116968,1,0
352,160,117277,1,2
256,96,117895,5,2
192,96,118205,1,0
128,128,118514,1,2
96,192,118823,1,0
128,256,119132,1,2
192,288,119441,1,0
224,296,119596,1,0
288,320,119905,2,0,B|352:320,1,62.5,2|2
384,256,120369,5,2
384,224,120523,2,2,B|384:96,1,125,2|2
288,128,121296,2,2,B|288:64,1,62.5
256,64,121606,2,0,B|128:96,1,125
128,128,122069,1,2
128,192,122379,2,0,B|128:256,3,62.5
176,288,123152,2,2,B|240:288,1,62.5
320,224,125300,5,0
373,181,125604,1,0
416,128,125909,1,0
352,96,126213,2,0,B|288:96,1,62.5
256,96,126518,1,0
224,128,126670,2,0,B|224:192|224:192|160:192,1,125
96,192,127280,1,0
160,192,127584,2,2,B|288:192|288:192|320:256,1,187.5
352,304,128346,1,0
288,320,128650,6,0,B|224:320,1,62.5
192,320,128955,1,0
160,320,129107,2,0,B|96:288|96:288|160:224,1,125
192,224,129717,1,0
256,192,130021,2,2,B|231:68|64:-7|106:161|96:192,1,250
96,160,130783,1,2
96,192,130935,2,0,B|96:256,2,62.5
128,192,131392,6,0,B|160:96|160:96|179:159|179:159|192:192,1,187.5
256,192,132154,1,2
288,128,132458,1,2
352,128,132763,2,0,B|416:128,1,62.5
256,256,133829,5,0
256,256,133981,1,0
256,192,134286,1,0
256,128,134591,1,0
256,128,134743,1,0
256,128,134895,2,2,B|256:320,1,187.5
128,320,135962,6,0,B|64:320,2,62.5
128,288,136419,2,0,B|128:224|128:224|192:224,1,125
256,224,137028,1,0
320,224,137332,2,2,B|384:224|551:109|347:57|288:64,1,312.5
224,64,138399,6,0,B|160:64,2,62.5
224,96,138856,2,0,B|224:160|224:160|160:160,1,125
96,160,139465,1,0
110,220,139769,2,2,B|142:284|216:387|134:69|238:156|294:283,1,312.5
352,256,140836,6,0,B|416:256,2,62.5
352,224,141293,2,0,B|352:160|352:160|288:128,1,125
224,128,141902,1,0
160,128,142206,1,0
96,128,142511,2,0,B|96:192,1,62.5
256,288,143577,5,2
256,288,143730,1,2
256,224,144034,1,0
256,160,144339,1,0
256,160,144491,1,0
256,160,144644,2,2,B|256:96|352:64|416:96|416:224|352:288,1,312.5
320,320,145710,5,0
256,320,146014,2,0,B|192:320,1,62.5
128,320,146471,1,0
96,256,146776,1,0
64,200,147081,2,2,B|16:144|8:56|64:16|80:8|128:24|200:56,1,312.5
256,64,148147,5,0
256,128,148451,2,0,B|256:192,1,62.5
256,256,148908,1,0
256,320,149213,1,0
320,320,149518,2,2,B|384:256|352:192|161:192|124:256|224:352,1,312.5
256,288,150584,5,0
256,224,150888,2,0,B|256:160,1,62.5
256,96,151345,1,0
320,96,151650,1,0
384,96,151955,2,2,B|448:96|484:157|448:192|392:280,1,187.5
408,256,152564,1,4
344,240,152869,1,4
304,288,153173,1,4
128,192,155153,5,4
256,192,155763,5,0
384,192,156372,6,4,B|128:192,1,250
256,320,157895,5,2
256,256,158200,1,2
256,160,158657,5,4
256,64,159113,5,0
256,192,159418,12,0,161246
