osu file format v9

[General]
AudioFilename: brightup.mp3
AudioLeadIn: 2000
PreviewTime: 44863
Countdown: 0
SampleSet: Normal
StackLeniency: 0.7
Mode: 0
LetterboxInBreaks: 1

[Editor]
DistanceSpacing: 0.8
BeatDivisor: 1
GridSize: 8

[Metadata]
Title:Brightdown (TV Size)
Artist:Tamaki Nami
Creator:arien666
Version:Kantan
Source:D.Gray-man
Tags:taiko taikosu arken1015 jericho2442 Lilac op2 happy30

[Difficulty]
HPDrainRate:2
CircleSize:3
OverallDifficulty:1
ApproachRate:1
SliderMultiplier:0.72
SliderTickRate:1

[Events]
//Background and Video events
Video,400,"brightup.avi"
0,0,"dgraywhat.jpg"
//Break Periods
//Storyboard Layer 0 (Background)
//Storyboard Layer 1 (Fail)
//Storyboard Layer 2 (Pass)
//Storyboard Layer 3 (Foreground)
//Storyboard Sound Samples
//Background Colour Transformations
3,100,163,162,255

[TimingPoints]
1569,309.214594928881,4,1,1,80,1,0
46086,304.41400304414,4,1,1,80,1,1
74100,310.880829015544,4,1,1,80,1,1
75907,309.278350515464,4,1,1,80,1,1
80233,309.278350515464,4,1,1,80,1,1
82707,-100,4,1,1,80,0,0
89511,-100,4,1,1,0,0,0

[Colours]
Combo1 : 112,196,193
Combo2 : 243,89,34

[HitObjects]
32,192,1569,1,0
144,192,2187,1,0
256,192,2805,1,0
480,192,4042,5,0
424,296,4661,1,2
312,296,5279,1,0
480,192,6516,5,0
368,192,7134,1,0
256,192,7753,1,0
32,192,8990,5,0
88,88,9608,1,2
203,88,10227,1,0
408,192,11463,5,4
256,368,12700,1,0
144,368,13319,1,2
64,288,13937,5,0
64,56,15174,1,0
160,120,15792,1,2
256,192,16411,5,0
488,192,17648,1,0
488,304,18266,1,2
408,384,18885,5,0
256,216,20121,1,0
144,216,20740,1,2
32,192,21358,5,0
32,80,21977,1,0
128,136,22595,1,0
224,192,23214,1,0
224,80,23832,5,2
320,136,24450,1,2
424,192,25069,1,2
320,248,25687,1,2
256,344,26306,5,0
144,344,26924,1,0
200,248,27543,1,0
88,248,28161,1,2
8,168,28779,2,0,B|0:160|48:56|192:56,2,216
120,192,31253,5,0
232,192,31872,1,0
176,88,32490,1,0
288,88,33108,1,2
400,88,33727,2,0,B|408:96|360:192|216:192,2,216
456,192,36201,5,0
456,304,36819,1,0
344,304,37437,1,0
344,192,38056,1,0
256,248,38674,5,2
144,248,39293,1,2
144,136,39911,1,2
256,136,40530,1,2
480,192,41766,5,2
256,248,43003,1,2
256,136,43622,6,0,B|256:64|352:32,2,144,0|2|6
21,136,46086,6,0,B|101:136,1,72
148,136,46694,1,0
256,136,47303,1,0
488,192,48521,6,0,B|408:192,1,72
361,192,49130,1,0
253,192,49738,1,0
137,192,50347,1,2
21,192,50956,6,0,B|7:112,1,72
0,63,51565,1,0
115,63,52174,1,0
338,136,53391,2,0,B|410:136|458:192|410:248|338:248,1,216,2|4
71,148,55827,6,0,B|159:148,1,72
199,148,56436,1,0
311,148,57044,1,0
384,368,58262,6,0,B|296:368,1,72
256,368,58871,1,0
144,368,59480,1,0
52,303,60089,1,2
32,192,60697,5,0
88,192,61002,1,0
144,192,61306,1,0
256,192,61915,1,0
486,192,63133,2,0,B|350:272|486:352,1,216,2|4
256,192,65568,5,0
256,136,65872,1,0
256,80,66177,1,0
360,136,66786,1,0
256,344,68003,5,0
256,288,68308,1,0
256,232,68612,1,0
144,192,69221,1,0
256,152,69830,1,2
360,192,70439,5,0
416,192,70743,1,0
472,192,71047,1,0
416,96,71656,1,0
208,192,72874,2,0,B|80:192|16:304,1,216,2|4
256,120,75343,5,4
344,192,75907,1,4
256,264,76525,1,4
168,192,77144,1,4
256,120,77762,1,6
256,192,79618,5,4
256,192,80233,12,0,82088
256,192,85181,5,0
144,192,85800,1,0
200,88,86418,1,0
432,88,87655,1,0
376,192,88274,1,2
328,296,88892,2,2,B|112:296,1,216
