osu file format v9

[General]
AudioFilename: brightup.mp3
AudioLeadIn: 2000
PreviewTime: 44863
Countdown: 0
SampleSet: Normal
StackLeniency: 0.7
Mode: 0
LetterboxInBreaks: 1

[Editor]
DistanceSpacing: 1
BeatDivisor: 2
GridSize: 8

[Metadata]
Title:Brightdown (TV Size)
Artist:Tamaki Nami
Creator:arien666
Version:Futsuu
Source:D.Gray-man
Tags:taiko taikosu arken1015 jericho2442 Lilac op2 happy30

[Difficulty]
HPDrainRate:3
CircleSize:4
OverallDifficulty:3
ApproachRate:3
SliderMultiplier:0.72
SliderTickRate:1

[Events]
//Background and Video events
Video,400,"brightup.avi"
0,0,"dgraywhat.jpg"
//Break Periods
//Storyboard Layer 0 (Background)
//Storyboard Layer 1 (Fail)
//Storyboard Layer 2 (Pass)
//Storyboard Layer 3 (Foreground)
//Storyboard Sound Samples
//Background Colour Transformations
3,100,163,162,255

[TimingPoints]
1569,309.214594928881,4,1,1,80,1,0
46086,304.41400304414,4,1,1,80,1,1
74100,310.880829015544,4,1,1,80,1,1
75907,309.278350515464,4,1,1,80,1,1
80233,309.278350515464,4,1,1,80,1,1
82707,-100,4,1,1,80,0,0
89511,-100,4,1,1,0,0,0

[Colours]
Combo1 : 112,196,193
Combo2 : 243,89,34

[HitObjects]
0,192,1569,2,0,B|88:192,1,72
144,192,2187,1,0
256,96,2805,1,0
392,50,3424,1,2
364,191,4042,6,0,B|276:191,1,72
220,191,4661,1,0
76,191,5279,1,0
328,54,6516,6,0,B|240:54,1,72
184,54,7134,1,0
54,119,7753,1,0
54,263,8371,1,2
184,320,8990,6,0,B|272:320,1,72
328,320,9608,1,0
400,192,10227,1,0
113,192,11463,5,0
255,170,12082,1,0
400,192,12700,1,0
256,216,13319,1,2
112,192,13937,1,0
112,48,14556,2,0,B|192:48,1,72
256,48,15174,1,0
360,192,16411,5,0
256,288,17029,1,0
152,192,17648,1,0
256,96,18266,1,2
360,192,18885,1,0
360,336,19503,2,0,B|280:336,1,72
216,336,20121,1,0
136,192,21358,5,0
136,192,21977,1,0
136,192,22595,1,0
376,192,23832,5,2
376,192,24450,1,2
376,192,25069,1,2
112,72,26306,6,0,B|184:72,1,72
256,72,26924,1,0
328,192,27543,2,2,B|256:192,1,72
184,192,28161,1,2
112,312,28779,2,0,B|344:312,2,216
40,192,31253,6,0,B|40:120,1,72
40,48,31872,1,0
184,48,32490,2,2,B|256:48,1,72
328,48,33108,1,2
472,48,33727,2,0,B|424:152|309:196,2,216
480,192,36201,5,0
480,192,36819,1,0
480,192,37437,1,0
32,192,38674,5,2
32,192,39293,1,2
32,192,39911,1,2
256,256,41148,6,0,B|344:256,1,72
400,256,41766,1,0
472,128,42385,2,2,B|384:128,1,72
328,128,43003,1,2
184,128,43622,1,0
8,192,46086,6,0,B|64:136,1,72
112,88,46694,2,0,B|184:88,1,72
256,88,47303,1,0
400,88,47912,1,0
504,192,48521,6,0,B|448:248,1,72
400,296,49130,2,0,B|328:296,1,72
256,296,49738,1,0
152,192,50347,1,2
8,192,50956,6,0,B|64:248,1,72
112,291,51565,2,0,B|184:291,1,72
256,291,52174,1,0
360,192,52783,1,0
256,88,53391,2,0,B|256:256,2,144,2|0|4
504,192,55827,6,0,B|448:248,1,72,0|2
400,296,56436,2,0,B|328:296,1,72,0|2
256,296,57044,1,0
112,296,57653,1,0
8,192,58262,6,0,B|64:136,1,72,0|2
112,88,58871,2,0,B|184:88,1,72,0|2
256,88,59480,1,0
360,192,60089,1,2
504,192,60697,6,0,B|448:136,1,72,0|2
400,88,61306,2,0,B|328:88,1,72,0|2
256,88,61915,1,0
152,192,62524,1,0
256,296,63133,2,0,B|256:128,2,144,2|0|4
12,192,65568,5,0
62,242,65872,1,2
112,292,66177,1,0
184,292,66481,1,2
256,292,66786,1,0
399,292,67394,1,0
500,192,68003,5,0
450,142,68308,1,2
400,92,68612,1,0
328,92,68917,1,2
256,92,69221,1,0
152,192,69830,1,2
12,192,70439,5,0
62,242,70743,1,2
112,292,71047,1,0
184,292,71352,1,2
256,292,71656,1,0
360,192,72265,1,0
256,88,72874,2,0,B|256:256,2,144,2|0|4
256,368,75343,1,0
40,192,75907,5,4
256,192,76525,1,4
472,192,77144,1,4
256,192,77762,1,6
256,32,79618,5,4
256,192,80233,12,0,82088
8,192,85181,5,0
80,192,85490,1,0
152,192,85800,1,0
256,88,86418,1,0
256,88,87037,1,2
360,192,87655,5,0
432,192,87964,1,0
504,192,88274,1,0
432,320,88892,2,2,B|208:320,1,216
