osu file format v10

[General]
AudioFilename: nyan.mp3
AudioLeadIn: 1000
PreviewTime: 66265
Countdown: 0
SampleSet: Soft
StackLeniency: 0.6
Mode: 0
LetterboxInBreaks: 1

[Editor]
Bookmarks: 1493,23311,45129,66947,88765,110583,132402,154220,176038,219674,241493
DistanceSpacing: 0.8
BeatDivisor: 4
GridSize: 4

[Metadata]
Title:Saigetsu (Midnight Moon Walker Remix)
TitleUnicode:Saigetsu (Midnight Moon Walker Remix)
Artist:Tama
ArtistUnicode:Tama
Creator:AmamiyaYuko
Version:Normal
Source:Touhou
Tags:Ibuki Suika a3272509123 Broken Moon Beren C82 ZUN Immaterial and Missing Power Skystar Drum and Bass
BeatmapID:185696
BeatmapSetID:57126

[Difficulty]
HPDrainRate:3
CircleSize:3
OverallDifficulty:3
ApproachRate:4
SliderMultiplier:0.999999999999999
SliderTickRate:1

[Events]
//Background and Video events
0,0,"BG.jpg"
//Break Periods
2,88965,97673
2,176238,184945
//Storyboard Layer 0 (Background)
//Storyboard Layer 1 (Fail)
//Storyboard Layer 2 (Pass)
//Storyboard Layer 3 (Foreground)
//Storyboard Sound Samples
//Background Colour Transformations
3,100,163,162,255

[TimingPoints]
1493,340.909090909091,4,1,2,60,1,0
5583,-100,4,1,1,65,0,0
6947,-100,4,1,2,60,0,0
10015,-100,4,1,1,60,0,0
11038,-100,4,1,2,60,0,0
11549,-100,4,1,1,60,0,0
12402,-100,4,1,2,60,0,0
13765,-100,4,3,1,40,0,0
13850,-100,4,3,1,45,0,0
13936,-100,4,3,1,50,0,0
14021,-100,4,3,1,55,0,0
14106,-100,4,3,1,60,0,0
14277,-100,4,1,1,60,0,0
15129,-100,4,1,2,60,0,0
21947,-100,4,1,1,30,0,0
22288,-100,4,1,1,35,0,0
22629,-100,4,1,1,40,0,0
22970,-100,4,1,1,45,0,0
23311,-100,4,2,2,60,0,0
23396,-100,4,1,1,60,0,0
24674,-100,4,1,2,60,0,0
24930,-100,4,1,1,60,0,0
27402,-100,4,1,2,60,0,0
27657,-100,4,1,1,60,0,0
28765,-100,4,1,2,60,0,0
28850,-100,4,1,1,60,0,0
30129,-100,4,1,2,60,0,0
30214,-100,4,1,1,60,0,0
31493,-100,4,1,2,60,0,0
31578,-100,4,1,1,60,0,0
32856,-100,4,1,2,60,0,0
33112,-100,4,1,1,60,0,0
34220,-100,4,1,2,60,0,0
34305,-100,4,1,1,60,0,0
35583,-100,4,1,2,60,0,0
35669,-100,4,1,1,60,0,0
36947,-100,4,1,2,60,0,0
37032,-100,4,1,1,60,0,0
38311,-100,4,1,2,60,0,0
38566,-100,4,1,1,60,0,0
39674,-100,4,1,2,60,0,0
39760,-100,4,1,1,60,0,0
41038,-100,4,1,2,60,0,0
41208,-100,4,1,1,60,0,0
42402,-100,4,2,2,50,0,0
43765,-100,4,1,2,50,0,0
45129,-100,4,2,2,60,0,0
45214,-100,4,1,1,60,0,0
46493,-100,4,1,2,60,0,0
46578,-100,4,1,1,60,0,0
47856,-100,4,1,2,60,0,0
47941,-100,4,1,1,60,0,0
49220,-100,4,1,2,60,0,0
49475,-100,4,1,1,60,0,0
50583,-100,4,1,2,60,0,0
50668,-100,4,1,1,60,0,0
51947,-100,4,1,2,60,0,0
52032,-100,4,1,1,60,0,0
53310,-100,4,1,2,60,0,0
53395,-100,4,1,1,60,0,0
54674,-100,4,1,2,60,0,0
54930,-100,4,1,1,60,0,0
56037,-100,4,1,2,60,0,0
56122,-100,4,1,1,60,0,0
57401,-100,4,1,2,60,0,0
57486,-100,4,1,1,60,0,0
58764,-100,4,1,2,60,0,0
58849,-100,4,1,1,60,0,0
60129,-100,4,1,2,60,0,0
60385,-100,4,1,1,60,0,0
61492,-100,4,1,2,60,0,0
61748,-100,4,1,1,60,0,0
62856,-100,4,1,2,60,0,0
63197,-100,4,1,1,60,0,0
66947,-100,4,2,2,80,0,1
67032,-100,4,1,1,70,0,1
67799,-100,4,1,2,70,0,1
67885,-100,4,1,1,70,0,1
68311,-100,4,1,2,70,0,1
68396,-100,4,1,1,70,0,1
69162,-100,4,1,2,70,0,1
69248,-100,4,1,1,70,0,1
69674,-100,4,1,2,70,0,1
69759,-100,4,1,1,70,0,1
70525,-100,4,1,2,70,0,1
70611,-100,4,1,1,70,0,1
71037,-100,4,1,2,70,0,1
71294,-100,4,1,1,70,0,1
71888,-100,4,1,2,70,0,1
71974,-100,4,1,1,70,0,1
72400,-100,4,1,2,70,0,1
72485,-100,4,1,1,70,0,1
73763,-100,4,1,2,70,0,1
73848,-100,4,1,1,70,0,1
75129,-100,4,1,2,70,0,1
75214,-100,4,1,1,70,0,1
75981,-100,4,1,2,70,0,1
76066,-100,4,1,1,70,0,1
76493,-100,4,1,2,70,0,1
76748,-100,4,1,1,70,0,1
77856,-100,4,1,2,70,0,1
77941,-100,4,1,1,70,0,1
78708,-100,4,1,2,70,0,1
78793,-100,4,1,1,70,0,1
79219,-100,4,3,1,50,0,1
79304,-100,4,3,1,55,0,1
79390,-100,4,3,1,60,0,1
79475,-100,4,3,1,65,0,1
79561,-100,4,3,1,70,0,1
79731,-100,4,3,1,60,0,1
79902,-100,4,3,1,55,0,1
80583,-100,4,1,2,70,0,1
80839,-100,4,1,1,70,0,1
81947,-100,4,1,2,70,0,1
82203,-100,4,1,1,70,0,1
83311,-100,4,1,2,70,0,1
83396,-100,4,1,1,70,0,1
84162,-100,4,1,2,70,0,1
84248,-100,4,1,1,70,0,1
84674,-100,4,1,2,70,0,1
84759,-100,4,1,1,70,0,1
85525,-100,4,1,2,70,0,1
85611,-100,4,1,1,70,0,1
86038,-100,4,2,2,50,0,0
88765,-100,4,2,2,70,0,1
88850,-100,4,2,2,70,0,0
98993,-100,4,1,1,70,0,0
99674,-100,4,1,2,70,0,0
99760,-100,4,1,1,70,0,0
101038,-100,4,3,1,50,0,0
101123,-100,4,3,1,55,0,0
101208,-100,4,3,1,60,0,0
101294,-100,4,3,1,65,0,0
101379,-100,4,3,1,70,0,0
101635,-100,4,1,1,70,0,0
102402,-100,4,1,2,70,0,0
102487,-100,4,1,1,70,0,0
103765,-100,4,1,2,70,0,0
104021,-100,4,1,1,70,0,0
105129,-100,4,1,2,70,0,0
105214,-100,4,1,1,70,0,0
106493,-100,4,1,2,70,0,0
106578,-100,4,1,1,70,0,0
109220,-100,4,1,2,60,0,0
110583,-100,4,2,1,75,0,0
110669,-100,4,2,1,40,0,0
113311,-100,4,2,1,50,0,0
114504,-100,4,2,1,40,0,0
118765,-100,4,2,1,50,0,0
120129,-100,4,2,1,40,0,0
131038,-100,4,1,1,35,0,0
131379,-100,4,1,1,40,0,0
131720,-100,4,1,1,45,0,0
132061,-100,4,1,1,50,0,0
132402,-100,4,2,2,50,0,0
132487,-100,4,1,2,40,0,0
135299,-100,4,2,1,36,0,0
135811,-100,4,1,2,40,0,0
135981,-100,4,2,1,36,0,0
136493,-100,4,1,1,60,0,0
136833,-100,4,1,2,40,0,0
136919,-100,4,1,1,60,0,0
137856,-100,4,1,2,40,0,0
142629,-100,4,2,1,50,0,0
151493,-100,4,2,1,60,0,0
153538,-100,4,1,1,40,0,0
153879,-100,4,1,1,50,0,0
154220,-100,4,2,2,80,0,1
154305,-100,4,1,1,70,0,1
155072,-100,4,1,2,70,0,1
155157,-100,4,1,1,70,0,1
155583,-100,4,1,2,70,0,1
155669,-100,4,1,1,70,0,1
156436,-100,4,1,2,70,0,1
156521,-100,4,1,1,70,0,1
156947,-100,4,1,2,70,0,1
157032,-100,4,1,1,70,0,1
157799,-100,4,1,2,70,0,1
157885,-100,4,1,1,70,0,1
158311,-100,4,1,2,70,0,1
158566,-100,4,1,1,70,0,1
159163,-100,4,1,2,70,0,1
159248,-100,4,1,1,70,0,1
159674,-100,4,1,2,70,0,1
159760,-100,4,1,1,70,0,1
161037,-100,4,1,2,70,0,1
161123,-100,4,1,1,70,0,1
162400,-100,4,1,2,70,0,1
162486,-100,4,1,1,70,0,1
163765,-100,4,1,2,70,0,1
164021,-100,4,1,1,70,0,1
165129,-100,4,1,2,70,0,1
165214,-100,4,1,1,70,0,1
165981,-100,4,1,2,70,0,1
166066,-100,4,1,1,70,0,1
166492,-100,4,1,2,70,0,1
166577,-100,4,1,1,70,0,1
167345,-100,4,1,2,70,0,1
167430,-100,4,1,1,70,0,1
167855,-100,4,1,2,70,0,1
167940,-100,4,1,1,70,0,1
169220,-100,4,1,2,70,0,1
169475,-100,4,1,1,70,0,1
170583,-100,4,1,2,70,0,1
170669,-100,4,1,1,70,0,1
171946,-100,4,1,2,70,0,1
172032,-100,4,1,1,70,0,1
172799,-100,4,1,2,70,0,1
172885,-100,4,1,1,70,0,1
173311,-100,4,2,2,50,0,0
176038,-100,4,2,2,60,0,1
176123,-100,4,1,2,60,0,0
186265,-100,4,1,1,60,0,0
186947,-100,4,2,1,50,0,0
188311,-100,4,2,1,40,0,0
188993,-100,4,2,1,50,0,0
195129,-100,4,1,2,30,0,0
197856,-100,4,2,2,100,0,1
197941,-100,4,1,1,70,0,1
199220,-100,4,1,2,70,0,1
199305,-100,4,1,1,70,0,1
200583,-100,4,1,2,70,0,1
200668,-100,4,1,1,70,0,1
201947,-100,4,1,2,70,0,1
202203,-100,4,1,1,70,0,1
203311,-100,4,1,2,70,0,1
203396,-100,4,1,1,70,0,1
204674,-100,4,1,2,70,0,1
204760,-100,4,1,1,70,0,1
206037,-100,4,1,2,70,0,1
206123,-100,4,1,1,70,0,1
207402,-100,4,1,2,70,0,1
207657,-100,4,1,1,70,0,1
208765,-100,4,1,2,70,0,1
208850,-100,4,1,1,70,0,1
210129,-100,4,3,1,50,0,1
210214,-100,4,3,1,55,0,1
210299,-100,4,3,1,60,0,1
210385,-100,4,3,1,65,0,1
210470,-100,4,3,1,70,0,1
210640,-100,4,1,1,60,0,1
210811,-100,4,1,1,55,0,1
211491,-100,4,1,2,70,0,1
211576,-100,4,1,1,70,0,1
212856,-100,4,1,2,70,0,1
213112,-100,4,1,1,70,0,1
214220,-100,4,1,2,70,0,1
214305,-100,4,1,1,70,0,1
215583,-100,4,1,2,70,0,1
215668,-100,4,1,1,70,0,1
216947,-100,4,2,2,70,0,0
219674,-100,4,2,2,90,0,1
219760,-100,4,1,2,70,0,0

[Colours]
Combo1 : 255,0,128
Combo2 : 255,255,77
Combo3 : 170,110,0
Combo4 : 255,176,98
Combo5 : 145,145,0
Combo6 : 255,0,0

[HitObjects]
52,296,1493,2,0,B|100:272|148:296,1,99.9999999999998,4|8,0:0|0:0,0:0:0
300,304,2345,2,0,B|240:304,1,49.9999999999999,4|8,0:0|0:0,0:0:0
200,216,2856,2,0,B|304:216,1,99.9999999999998,4|8,0:0|0:0,0:0:0
412,312,3708,2,0,B|384:264,1,49.9999999999999,4|8,0:0|0:0,0:0:0
440,184,4220,6,0,B|388:196|352:152,1,99.9999999999998,4|8,0:0|0:0,0:0:0
224,72,5072,2,0,B|276:96,1,49.9999999999999,4|8,0:0|0:0,0:0:0
216,180,5583,6,0,B|256:216,2,50,2|2|8,0:0|0:0|0:0,0:0:0
172,156,6095,2,0,B|132:192|160:248,1,99.9999999999999,2|2,0:0|0:0,0:0:0
156,296,6606,2,0,B|112:328,1,50,8|0,0:0|0:0,0:0:0
156,356,6947,5,4,0:0:0
256,356,7288,1,8,0:0:0
404,356,7799,2,0,B|352:356,1,50,4|8,0:0|0:0,0:0:0
300,272,8311,1,4,0:0:0
200,272,8652,1,8,0:0:0
104,156,9163,2,0,B|156:156,1,50,4|8,0:0|0:0,0:0:0
248,188,9674,1,4,0:0:0
300,272,10015,38,0,B|352:272,1,50,8|2,0:0|0:0,0:0:0
372,228,10356,2,0,B|472:228,2,99.9999999999999,2|8|4,0:0|0:0|0:0,0:0:0
336,192,11208,2,0,B|284:192,1,50,2|8,0:0|0:0,0:0:0
224,112,11720,2,0,B|280:112,1,50,2|6,0:0|0:0,0:0:0
324,112,12061,2,0,B|428:112,1,99.9999999999999,8|4,0:0|0:0,0:0:0
492,40,12743,5,8,0:0:0
344,36,13254,2,0,B|396:36,1,50,4|8,0:0|0:0,0:0:0
340,120,13765,2,2,B|288:128|256:72,1,99.9999999999999,0|8,0:0|0:0,0:0:0
156,80,14447,1,2,0:0:0
156,80,14788,1,8,0:0:0
112,168,15129,6,0,B|160:192|208:168,1,99.9999999999999,4|8,0:0|0:0,0:0:0
332,252,15981,2,0,B|280:248,1,50,4|8,0:0|0:0,0:0:0
212,320,16493,2,0,B|160:316,2,50,4|4|8,0:0|0:0|0:0,0:0:0
360,332,17345,2,0,B|409:335,1,50,4|8,0:0|0:0,0:0:0
484,268,17856,6,0,B|428:276|404:216,1,99.9999999999999,4|8,0:0|0:0,0:0:0
444,76,18708,2,0,B|416:128,1,50,4|8,0:0|0:0,0:0:0
324,96,19220,2,0,B|280:132|224:112,2,99.9999999999999,4|8|0,0:0|0:0|0:0,0:0:0
256,24,20243,1,8,0:0:0
256,24,20583,1,4,0:0:0
164,232,21947,37,2,0:0:0
212,248,22288,5,2,0:0:0
256,272,22629,5,2,0:0:0
296,304,22970,5,2,0:0:0
324,344,23311,38,0,B|368:376|424:352,2,99.9999999999999,14|8|2,0:0|0:0|0:0,0:0:0
224,348,24333,1,8,0:0:0
180,260,24674,2,0,B|148:300|84:292,1,99.9999999999999,6|8,0:0|0:0,0:0:0
140,152,25527,2,0,B|192:156,1,50,6|8,0:0|0:0,0:0:0
268,216,26038,6,0,B|360:176,1,99.9999999999999,6|8,0:0|0:0,0:0:0
460,176,26720,2,0,B|460:124|412:92,1,99.9999999999999,2|8,0:0|0:0,0:0:0
320,60,27402,2,0,B|280:100,1,50,6|4,0:0|0:0,0:0:0
252,132,27743,2,0,B|152:128,1,99.9999999999999,8|2,0:0|0:0,0:0:0
52,140,28424,1,8,0:0:0
116,216,28765,6,0,B|140:264|112:312,1,99.9999999999999,2|8,0:0|0:0,0:0:0
204,352,29447,2,0,B|260:356,2,50,0|6|8,0:0|0:0|0:0,0:0:0
304,356,30129,2,0,B|356:372|400:336,1,99.9999999999999,6|8,0:0|0:0,0:0:0
448,252,30811,1,2,0:0:0
360,208,31152,1,8,0:0:0
264,228,31493,6,0,B|200:308,1,99.9999999999999,6|8,0:0|0:0,0:0:0
164,212,32174,2,0,B|200:176|168:116,1,99.9999999999999,2|8,0:0|0:0,0:0:0
112,40,32856,2,0,B|164:32,1,49.9999999999999,6|4,0:0|0:0,0:0:0
212,32,33197,2,0,B|260:56|276:112,1,99.9999999999999,8|2,0:0|0:0,0:0:0
248,204,33879,1,8,0:0:0
248,204,34220,38,0,B|352:228,1,99.9999999999999,6|8,0:0|0:0,0:0:0
436,344,35072,2,0,B|396:312,1,49.9999999999999,6|8,0:0|0:0,0:0:0
492,280,35583,2,0,B|444:268|432:200,1,99.9999999999999,6|8,0:0|0:0,0:0:0
368,128,36265,2,0,B|328:172,2,49.9999999999999,0|6|8,0:0|0:0|0:0,0:0:0
272,100,36947,6,0,B|228:128|176:96,1,99.9999999999999,6|8,0:0|0:0,0:0:0
100,160,37629,2,0,B|80:112,2,50,0|6|8,0:0|0:0|0:0,0:0:0
80,260,38311,2,0,B|132:260,2,50,6|4|8,0:0|0:0|0:0,0:0:0
176,292,38993,2,0,B|280:284,1,99.9999999999999,2|8,0:0|0:0,0:0:0
368,252,39674,6,0,B|316:256|288:200,1,99.9999999999999,6|8,0:0|0:0,0:0:0
424,132,40527,2,0,B|468:156,1,49.9999999999999,6|8,0:0|0:0,0:0:0
456,256,41038,2,0,B|456:316|396:336,1,99.9999999999999,6|8,0:0|0:0,0:0:0
304,332,41720,2,0,B|304:272|364:252,1,99.9999999999999,2|8,0:0|0:0,0:0:0
456,256,42402,5,6,0:0:0
264,124,43765,37,6,0:0:0
240,168,44106,5,8,0:0:0
200,200,44447,5,4,0:0:0
156,224,44788,5,8,0:0:0
108,236,45129,38,0,B|164:240|188:296,1,99.9999999999999,14|8,0:0|0:0,0:0:0
268,348,45811,1,2,0:0:0
360,312,46152,1,8,0:0:0
396,220,46493,2,0,B|488:272,1,99.9999999999999,6|8,0:0|0:0,0:0:0
476,168,47174,2,0,B|476:112,2,50,0|6|8,0:0|0:0|0:0,0:0:0
388,124,47856,6,0,B|336:128|312:180,1,99.9999999999999,6|8,0:0|0:0,0:0:0
216,156,48538,2,0,B|255:122|244:66,1,99.9999999999999,2|8,0:0|0:0,0:0:0
144,84,49220,2,0,B|116:140,1,50,0|4,0:0|0:0,0:0:0
128,180,49561,2,0,B|48:260,2,99.9999999999999,8|2|8,0:0|0:0|0:0,0:0:0
180,264,50583,6,0,B|224:236|224:176,2,99.9999999999999,6|8|0,0:0|0:0|0:0,0:0:0
100,324,51606,1,8,0:0:0
196,356,51947,2,0,B|300:364,2,99.9999999999999,6|8|2,0:0|0:0|0:0,0:0:0
100,324,52970,1,8,0:0:0
64,232,53311,6,0,B|40:132,1,99.9999999999999,6|8,0:0|0:0,0:0:0
136,168,53993,2,0,B|164:72,1,99.9999999999999,2|8,0:0|0:0,0:0:0
264,68,54674,2,0,B|304:100,2,50,6|4|8,0:0|0:0|0:0,0:0:0
356,32,55356,2,0,B|460:44,1,99.9999999999999,2|8,0:0|0:0,0:0:0
484,140,56038,38,0,B|428:132|392:172,2,99.9999999999999,6|8|2,0:0|0:0|0:0,0:0:0
464,240,57061,1,8,0:0:0
376,288,57402,2,0,B|388:336|456:344,2,99.9999999999999,6|8|2,0:0|0:0|0:0,0:0:0
316,208,58424,1,8,0:0:0
312,108,58765,6,0,B|220:160,1,99.9999999999999,6|8,0:0|0:0,0:0:0
144,100,59447,2,0,B|108:148,2,50,0|6|8,0:0|0:0|0:0,0:0:0
44,80,60129,2,0,B|20:128,2,50,6|4|8,0:0|0:0|0:0,0:0:0
32,180,60811,2,0,B|52:284,1,99.9999999999999,2|8,0:0|0:0,0:0:0
128,344,61493,5,6,0:0:0
128,344,61833,2,0,B|184:360|232:328,2,99.9999999999999,8|2|8,0:0|0:0|0:0,0:0:0
160,248,62856,1,6,0:0:0
256,220,63197,1,8,0:0:0
224,124,63538,1,2,0:0:0
128,152,63879,1,8,0:0:0
256,192,64220,12,0,66265,0:0:0
268,284,66947,53,0,0:0:0
176,244,67288,2,0,B|128:256,1,50,8|2,0:0|0:0,0:0:0
52,192,67799,2,0,B|100:180,1,50,6|8,0:0|0:0,0:0:0
184,124,68311,1,6,0:0:0
276,160,68652,2,0,B|332:184|388:152|388:152|424:168,1,150,8|6,0:0|0:0,0:0:0
464,144,69333,2,0,B|488:188|464:244,1,99.9999999999999,8|6,0:0|0:0,0:0:0
384,296,70015,5,6,0:0:0
236,276,70527,2,0,B|176:276,1,50,6|8,0:0|0:0,0:0:0
144,184,71038,2,0,B|84:184,2,50,6|4|8,0:0|0:0|0:0,0:0:0
216,116,71720,2,0,B|266:116,2,50,0|6|8,0:0|0:0|0:0,0:0:0
132,64,72402,5,6,0:0:0
224,28,72743,2,0,B|328:40,2,99.9999999999999,8|2|8,0:0|0:0|0:0,0:0:0
272,116,73765,2,0,B|364:160,1,99.9999999999999,6|8,0:0|0:0,0:0:0
416,244,74447,1,2,0:0:0
484,316,74788,1,8,0:0:0
388,288,75129,5,6,0:0:0
292,308,75470,2,0,B|240:324,1,50,8|2,0:0|0:0,0:0:0
168,260,75981,2,0,B|116:264,1,50,6|8,0:0|0:0,0:0:0
64,180,76493,2,0,B|8:152,2,50,6|4|8,0:0|0:0|0:0,0:0:0
120,100,77174,2,0,B|160:136|220:112,1,99.9999999999999,2|8,0:0|0:0,0:0:0
288,48,77856,38,0,B|392:44,1,99.9999999999999,6|8,0:0|0:0,0:0:0
484,156,78708,2,0,B|440:120,1,50,6|8,0:0|0:0,0:0:0
356,172,79220,2,2,B|360:228|304:264,2,99.9999999999999,0|8|0,0:0|0:0|0:0,0:0:0
256,188,80243,1,8,0:0:0
184,256,80583,6,0,B|84:296,1,99.9999999999999,6|8,0:0|0:0,0:0:0
104,192,81265,2,0,B|52:212|4:160,1,99.9999999999999,2|8,0:0|0:0,0:0:0
88,104,81947,2,0,B|144:108,2,50,6|4|8,0:0|0:0|0:0,0:0:0
188,120,82629,2,0,B|292:140,2,99.9999999999999,2|8|6,0:0|0:0|0:0,0:0:0
232,212,83652,6,0,B|280:240,1,50,8|2,0:0|0:0,0:0:0
376,224,84163,2,0,B|432:228,1,50,6|8,0:0|0:0,0:0:0
476,140,84674,2,0,B|424:152|396:88,1,99.9999999999999,6|8,0:0|0:0,0:0:0
304,52,85356,2,0,B|248:56,2,50,0|6|8,0:0|0:0|0:0,0:0:0
304,152,86038,5,14,0:0:0
256,192,86208,12,4,88765,0:0:0
428,128,98993,37,2,0:0:0
376,212,99333,1,2,0:0:0
324,296,99674,2,0,B|280:324|224:300,1,99.9999999999998,6|8,0:0|0:0,0:0:0
148,244,100356,2,0,B|192:216,2,49.9999999999999,0|6|8,0:0|0:0|0:0,0:0:0
148,144,101038,2,2,B|252:120,1,99.9999999999998,2|10,0:0|0:0,0:0:0
344,116,101720,1,2,0:0:0
424,56,102061,1,8,0:0:0
424,156,102402,6,0,B|420:212|476:236,1,99.9999999999998,6|8,0:0|0:0,0:0:0
416,316,103083,2,0,B|464:344,2,50,0|6|8,0:0|0:0|0:0,0:0:0
324,280,103765,2,0,B|264:276,1,49.9999999999999,6|4,0:0|0:0,0:0:0
240,240,104106,2,0,B|140:264,2,99.9999999999998,8|2|8,0:0|0:0|0:0,0:0:0
316,176,105129,5,6,0:0:0
228,128,105470,2,0,B|176:104,1,49.9999999999999,8|2,0:0|0:0,0:0:0
264,48,105981,2,0,B|309:68,1,49.9999999999999,6|8,0:0|0:0,0:0:0
392,124,106493,1,6,0:0:0
412,220,106833,2,0,B|412:272,1,49.9999999999999,8|2,0:0|0:0,0:0:0
312,276,107345,2,0,B|296:328,1,49.9999999999999,6|8,0:0|0:0,0:0:0
196,320,107856,5,6,0:0:0
84,100,109220,37,2,0:0:0
132,108,109561,5,8,0:0:0
180,100,109902,5,2,0:0:0
228,80,110243,5,8,0:0:0
268,52,110583,37,4,0:0:0
400,140,111265,2,0,B|448:160|464:220,1,99.9999999999998,2|2,0:0|0:0,0:0:0
432,288,111947,1,4,0:0:0
280,336,112629,2,0,B|176:336,1,99.9999999999998,2|2,0:0|0:0,0:0:0
180,256,113311,6,0,B|124:256|100:312,3,99.9999999999998,4|2|0|2,0:0|0:0|0:0|0:0,0:0:0
40,360,114674,1,4,0:0:0
44,200,115356,2,0,B|44:92,1,99.9999999999998,2|2,0:0|0:0,0:0:0
124,108,116038,6,0,B|188:108|188:108|196:152|228:192|284:184,1,200,4|2,0:0|0:0,0:0:0
272,104,117061,1,2,0:0:0
260,24,117402,2,0,B|316:16|348:56|356:100|356:100|420:100,1,200,4|2,0:0|0:0,0:0:0
468,164,118424,1,2,0:0:0
448,240,118765,6,0,B|428:344,1,99.9999999999998,4|2,0:0|0:0,0:0:0
356,300,119447,2,0,B|296:388,1,99.9999999999998,0|2,0:0|0:0,0:0:0
244,324,120129,2,0,B|204:356|148:352|104:316|104:316|56:344,1,200,4|2,0:0|0:0,0:0:0
32,264,121152,1,2,0:0:0
60,188,121493,38,0,B|96:144|72:92,1,99.9999999999998,4|0,0:0|0:0,0:0:0
144,60,122174,1,2,0:0:0
220,84,122515,1,2,0:0:0
300,96,122856,2,0,B|400:84,1,99.9999999999998,4|0,0:0|0:0,0:0:0
436,156,123538,1,2,0:0:0
400,228,123879,1,2,0:0:0
416,308,124220,6,0,B|380:348|316:332,1,99.9999999999998,4|0,0:0|0:0,0:0:0
268,276,124902,2,0,B|216:288,2,49.9999999999999,2|0|0,0:0|0:0|0:0,0:0:0
320,216,125583,2,0,B|280:184|224:204|224:204|176:204|136:164,1,200,4|2,0:0|0:0,0:0:0
92,100,126606,1,2,0:0:0
40,40,126947,5,4,0:0:0
64,200,127629,2,0,B|60:304,1,99.9999999999998,2|2,0:0|0:0,0:0:0
136,328,128311,2,0,B|184:348|232:320,1,99.9999999999998,4|2,0:0|0:0,0:0:0
276,252,128993,2,0,B|228:232|180:260,1,99.9999999999998,0|2,0:0|0:0,0:0:0
112,220,129674,5,4,0:0:0
164,160,130015,2,0,B|216:160,1,49.9999999999999,2|4,0:0|0:0,0:0:0
260,96,130527,2,0,B|312:96,1,49.9999999999999,2|4,0:0|0:0,0:0:0
372,44,131038,37,0,0:0:0
412,76,131379,5,0,0:0:0
432,124,131720,5,0,0:0:0
424,172,132061,5,0,0:0:0
388,208,132402,37,14,0:0:0
192,252,133083,2,0,B|268:232|332:292,2,150,8|4|4,0:0|0:0|0:0,0:0:0
96,228,134447,1,8,0:0:0
28,40,135129,6,0,B|64:80|124:64,1,99.9999999999998,4|0,0:0|0:0,0:0:0
216,44,135811,2,0,B|316:84,1,99.9999999999998,8|0,0:0|0:0,0:0:0
408,72,136493,2,0,B|464:56,2,49.9999999999999,2|2|0,0:0|0:0|0:0,0:0:0
364,160,137174,1,8,0:0:0
344,256,137515,2,0,B|295:269,2,49.9999999999999,0|2|4,0:0|0:0|0:0,0:0:0
152,196,138538,6,0,B|196:228|264:216|284:168,2,150,8|4|4,0:0|0:0|0:0,0:0:0
204,112,139902,1,8,0:0:0
392,184,140583,5,4,0:0:0
320,316,141095,2,0,B|372:316,1,49.9999999999999,4|8,0:0|0:0,0:0:0
220,320,141777,1,4,0:0:0
92,240,142288,2,0,B|144:256|188:216,1,99.9999999999998,4|8,0:0|0:0,0:0:0
320,72,143311,37,2,0:0:0
480,188,143993,2,0,B|432:204|380:160,1,99.9999999999998,4|0,0:0|0:0,0:0:0
288,176,144674,1,2,0:0:0
128,300,145356,2,0,B|176:316|228:272,1,99.9999999999998,4|0,0:0|0:0,0:0:0
320,288,146037,5,2,0:0:0
204,124,146720,2,0,B|240:160,2,49.9999999999999,4|0|0,0:0|0:0|0:0,0:0:0
108,88,147402,1,2,0:0:0
48,280,148083,2,0,B|96:268|152:300,1,99.9999999999998,4|0,0:0|0:0,0:0:0
240,328,148765,5,2,0:0:0
432,268,149447,2,0,B|384:280|328:248,1,99.9999999999998,4|0,0:0|0:0,0:0:0
280,168,150129,2,0,B|380:164,1,99.9999999999998,2|0,0:0|0:0,0:0:0
376,64,150811,2,0,B|328:88|260:48|260:48|220:48|220:84|260:88,1,200,4|2,0:0|0:0,0:0:0
112,256,153538,6,0,B|216:268,2,99.9999999999998,2|0|14,0:0|0:0|0:0,0:0:0
172,176,154561,38,0,B|224:184,1,49.9999999999999,8|2,0:0|0:0,0:0:0
288,108,155072,2,0,B|238:100,1,49.9999999999999,6|8,0:0|0:0,0:0:0
140,84,155583,1,6,0:0:0
72,160,155924,1,8,0:0:0
104,308,156436,2,0,B|96:256,1,49.9999999999999,6|8,0:0|0:0,0:0:0
188,304,156947,6,0,B|288:320,1,99.9999999999998,6|8,0:0|0:0,0:0:0
416,244,157799,2,0,B|360:268,1,49.9999999999999,6|8,0:0|0:0,0:0:0
292,200,158311,2,0,B|337:180,2,49.9999999999999,6|4|8,0:0|0:0|0:0,0:0:0
196,168,158993,2,0,B|150:187,2,49.9999999999999,0|6|8,0:0|0:0|0:0,0:0:0
276,108,159674,6,0,B|320:80|376:100,1,99.9999999999998,6|8,0:0|0:0,0:0:0
428,184,160356,2,0,B|384:212|328:192,1,99.9999999999998,2|8,0:0|0:0,0:0:0
232,196,161038,2,0,B|272:292,2,99.9999999999998,6|8|2,0:0|0:0|0:0,0:0:0
168,120,162061,1,8,0:0:0
136,216,162402,6,0,B|88:312,1,99.9999999999998,6|8,0:0|0:0,0:0:0
32,224,163083,2,0,B|76:134,1,99.9999999999998,2|8,0:0|0:0,0:0:0
176,136,163765,2,0,B|236:136,2,49.9999999999999,6|4|8,0:0|0:0|0:0,0:0:0
216,44,164447,1,2,0:0:0
216,44,164788,1,8,0:0:0
216,44,165129,38,0,B|268:32|308:80,1,99.9999999999998,6|8,0:0|0:0,0:0:0
372,212,165981,2,0,B|340:168,1,49.9999999999999,6|8,0:0|0:0,0:0:0
284,252,166493,1,6,0:0:0
284,252,166833,1,8,0:0:0
132,256,167345,2,0,B|184:256,1,49.9999999999999,6|8,0:0|0:0,0:0:0
144,164,167856,6,0,B|88:160|56:200,2,99.9999999999998,6|8|2,0:0|0:0|0:0,0:0:0
240,192,168879,1,8,0:0:0
208,96,169220,2,0,B|176:56,2,49.9999999999999,6|4|8,0:0|0:0|0:0,0:0:0
304,124,169902,2,0,B|404:128,1,99.9999999999998,2|8,0:0|0:0,0:0:0
496,168,170583,6,0,B|480:220|416:220,1,99.9999999999998,6|8,0:0|0:0,0:0:0
320,240,171265,1,2,0:0:0
232,288,171606,1,8,0:0:0
152,348,171947,2,0,B|100:368|60:324,1,99.9999999999998,6|8,0:0|0:0,0:0:0
128,252,172629,2,0,B|128:196,2,49.9999999999999,0|6|8,0:0|0:0|0:0,0:0:0
224,280,173311,5,14,0:0:0
256,192,173481,12,6,176038,0:0:0
72,232,186265,37,2,0:0:0
72,232,186606,1,0,0:0:0
124,292,186947,2,0,B|228:292,1,99.9999999999998,4|0,0:0|0:0,0:0:0
304,296,187629,1,2,0:0:0
376,332,187970,1,2,0:0:0
380,252,188311,2,2,B|440:256|460:320,2,99.9999999999998,0|0|0,0:0|0:0|0:0,0:0:0
300,216,189333,1,2,0:0:0
240,164,189674,5,4,0:0:0
80,140,190356,2,0,B|144:140,2,49.9999999999999,2|0|2,0:0|0:0|0:0,0:0:0
32,204,191038,1,4,0:0:0
168,284,191720,2,0,B|272:284,1,99.9999999999998,2|2,0:0|0:0,0:0:0
348,284,192402,5,4,0:0:0
428,284,192743,2,0,B|480:284,1,49.9999999999999,0|2,0:0|0:0,0:0:0
384,208,193424,1,2,0:0:0
304,208,193765,1,4,0:0:0
232,172,194106,2,0,B|180:172,1,49.9999999999999,0|2,0:0|0:0,0:0:0
96,88,194788,6,0,B|196:88,1,99.9999999999998,2|0,0:0|0:0,0:0:0
64,328,197856,38,0,B|112:352|164:316,1,99.9999999999998,14|8,0:0|0:0,0:0:0
208,232,198538,2,0,B|260:244|272:304,1,99.9999999999998,2|8,0:0|0:0,0:0:0
372,300,199220,2,0,B|376:256|344:204,2,99.9999999999998,6|8|2,0:0|0:0|0:0,0:0:0
472,296,200243,1,8,0:0:0
480,196,200583,5,6,0:0:0
444,104,200924,2,0,B|400:128|344:104|344:104|288:112,1,150,8|6,0:0|0:0,0:0:0
248,120,201606,2,0,B|144:120,1,99.9999999999998,8|6,0:0|0:0,0:0:0
104,144,202118,2,0,B|44:152,1,49.9999999999999,4|8,0:0|0:0,0:0:0
60,252,202629,1,2,0:0:0
140,312,202970,1,8,0:0:0
240,300,203311,6,0,B|344:300,1,99.9999999999998,6|8,0:0|0:0,0:0:0
420,240,203993,1,2,0:0:0
340,180,204334,1,8,0:0:0
240,192,204675,2,0,B|136:192,1,99.9999999999998,6|8,0:0|0:0,0:0:0
100,100,205356,2,0,B|152:96,2,49.9999999999999,0|6|8,0:0|0:0|0:0,0:0:0
48,184,206038,5,6,0:0:0
84,276,206379,2,0,B|120:312,1,49.9999999999999,8|2,0:0|0:0,0:0:0
212,344,206890,2,0,B|248:308,1,49.9999999999999,6|8,0:0|0:0,0:0:0
336,260,207402,2,0,B|388:260,1,49.9999999999999,6|4,0:0|0:0,0:0:0
436,256,207743,2,0,B|488:248|504:192,1,99.9999999999998,8|2,0:0|0:0,0:0:0
476,96,208424,1,8,0:0:0
396,40,208765,38,0,B|292:64,1,99.9999999999998,6|8,0:0|0:0,0:0:0
200,80,209447,1,2,0:0:0
104,56,209788,1,8,0:0:0
32,128,210129,2,2,B|8:72,2,49.9999999999999,0|0|8,0:0|0:0|0:0,0:0:0
80,136,210640,2,0,B|136:128|180:168,1,99.9999999999998,2|6,0:0|0:0,0:0:0
204,200,211152,2,0,B|256:204,1,49.9999999999999,8|2,0:0|0:0,0:0:0
304,196,211493,6,0,B|360:196|400:244,1,99.9999999999998,6|8,0:0|0:0,0:0:0
408,336,212174,2,0,B|352:336|312:288,1,99.9999999999998,0|8,0:0|0:0,0:0:0
220,276,212856,2,0,B|168:276,1,49.9999999999999,6|4,0:0|0:0,0:0:0
124,292,213197,2,0,B|24:244,2,99.9999999999998,8|2|8,0:0|0:0|0:0,0:0:0
196,364,214220,6,0,B|248:376|296:348,1,99.9999999999998,6|8,0:0|0:0,0:0:0
348,268,214902,2,0,B|452:268,1,99.9999999999998,2|8,0:0|0:0,0:0:0
484,176,215583,1,6,0:0:0
440,88,215924,1,8,0:0:0
352,40,216265,2,0,B|280:40,2,49.9999999999999,4|6|8,0:0|0:0|0:0,0:0:0
352,140,216947,5,14,0:0:0
256,192,217118,12,6,219674,0:0:0
