osu file format v5

[General]
AudioFilename: Thrust Through the Heavens with Your Spirit.mp3
AudioLeadIn: 0
PreviewTime: -1
Countdown: 0
SampleSet: Soft
StackLeniency: 0.7
Mode: 0
LetterboxInBreaks: 0
SkinPreference:gurrendan
EditorBookmarks: 28013
EditorDistanceSpacing: 0.800000011920929

[Metadata]
Title:Thrust Through the Heavens with Your Spirit!
Artist:Taku Iwasaki
Creator:lukewarmholiday
Version:Past the Heavens
Source:
Tags:

[Difficulty]
HPDrainRate:5
CircleSize:5
OverallDifficulty:7
SliderMultiplier:1.6
SliderTickRate:1

[Events]
//Background and Video events
0,0,"a2d2bfe43fdb1ea66f284524e451a9d0.jpg"
//Break Periods
2,139689,146473
2,206727,209459
//Storyboard Layer 0 (Background)
//Storyboard Layer 1 (Fail)
//Storyboard Layer 2 (Pass)
//Storyboard Layer 3 (Foreground)
//Storyboard Sound Samples
//Background Colour Transformations
3,100,163,162,255

[TimingPoints]
250,437.956204379562,4,2,0,20,1,0
84198,-100,4,2,0,20,0,1
91752,-100,4,2,0,20,0,0
133388,-100,4,2,0,20,0,1
140395,-100,4,2,0,20,0,0
147263,-100,4,2,0,20,0,1
158760,-100,4,2,0,20,0,0

[HitObjects]
256,72,28279,2,0,B|360:72|376:184,1,160
376,224,28936,1,0
320,264,29155,1,0
288,264,29264,1,0
256,264,29374,1,0
224,264,29483,1,0
192,264,29593,1,0
136,224,29812,1,0
136,160,30031,6,0,B|160:72|256:72,1,160
256,136,30687,1,0
256,200,30906,2,0,B|256:312|368:312,1,160
400,192,31782,6,0,B|472:192|496:232,2,80
336,192,32439,1,0
304,192,32549,1,0
272,192,32658,1,0
208,192,32877,1,0
160,232,33096,1,0
112,192,33315,1,0
64,152,33534,6,0,B|64:64|176:64,1,160
240,64,34191,1,0
296,96,34410,2,0,B|296:192|400:192,1,160
424,320,35286,6,0,B|480:320|504:352,2,80
360,320,35943,1,0
328,320,36052,1,0
296,320,36162,1,0
232,320,36381,1,0
168,296,36600,6,0,B|104:296|88:336,2,80
224,248,37257,1,0
264,192,37476,2,0,B|320:192|352:224,2,80
224,136,38133,1,0
168,96,38352,2,0,B|120:96|72:104,1,80
64,160,38790,6,0,B|72:200,3,40
80,232,39228,6,0,B|104:280,3,40
120,288,39666,6,0,B|176:312,3,40
184,304,40104,6,0,B|232:304,3,40
256,304,40541,6,0,B|312:280,3,40
320,272,40979,6,0,B|360:240,3,40
376,232,41417,6,0,B|408:200,3,40
432,184,41855,5,0
448,160,41965,1,0
464,128,42074,1,0
472,96,42184,1,0
472,64,42293,2,0,B|320:64|328:168|160:168,1,320
64,64,43607,5,0
8,192,44045,2,0,B|8:296|112:296,1,160
176,192,44921,2,0,B|272:192|272:296,1,160
400,304,45797,6,0,B|464:304|488:280,2,80
400,240,46454,2,0,B|464:240|488:216,2,80
344,264,47111,1,0
304,216,47330,1,0
264,264,47549,2,0,B|232:304|152:304|120:264,1,160
192,192,48206,1,0
264,120,48425,2,0,B|232:80|152:80|120:120,1,160
64,192,49191,5,0
64,192,49301,2,0,B|160:192,1,80
208,192,49739,1,0
280,192,49958,1,0
464,192,50614,1,0
400,120,50943,5,0
400,120,51052,1,0
344,80,51271,1,0
280,104,51490,1,0
245,45,51709,1,0
176,48,51928,6,0,B|104:48|112:136|48:136,1,160
16,192,52585,1,0
51,248,52804,6,0,B|123:248|115:336|179:336,1,160,0|0
240,336,53461,1,0
464,256,54118,5,0
416,216,54337,1,0
368,176,54556,2,0,B|424:144|472:200,2,80
304,192,55213,1,0
72,168,55651,5,0
88,136,55760,1,0
104,112,55870,1,0
128,88,55979,1,0
152,72,56089,1,0
184,64,56198,1,0
216,64,56308,2,0,B|416:64|344:192|496:192,2,320
168,128,58279,1,0
208,192,58498,1,0
496,192,58936,6,0,B|376:192|392:320|280:320,1,240
224,320,59812,1,0
256,248,60031,1,0
256,216,60140,1,0
256,184,60249,1,0
256,112,60468,1,0
256,112,60687,1,0
256,192,60797,12,0,62001
440,168,62658,5,0
424,136,62768,1,0
408,112,62877,1,0
384,88,62987,1,0
360,72,63096,1,0
328,64,63206,1,0
296,56,63315,2,0,B|248:56|208:80,1,80
192,152,63753,6,0,B|160:200|104:208,1,80
56,240,64191,2,0,B|80:280|136:272,1,80
192,224,64629,2,0,B|240:208|296:256,1,80
272,312,65067,2,0,B|343:377|416:312,1,160
344,256,65724,1,0
272,192,65943,2,0,B|343:127|416:192,1,160,0|0
472,112,66600,1,0
416,32,66819,6,0,B|344:104|272:32,1,160
210,109,67476,1,0
256,192,67695,2,0,B|334:256|256:328,1,160
104,272,68571,5,0
104,152,68899,1,0
104,192,69009,1,0
232,192,69447,5,0
296,192,69666,5,0
328,192,69775,1,0
360,184,69885,1,0
384,168,69994,1,0
400,144,70104,1,0
408,112,70213,1,0
408,72,70322,2,0,B|224:72|256:168|96:168,1,320,0|0
104,312,71636,6,0,B|176:360|256:312,1,160
304,256,72293,1,0
256,200,72512,1,0
208,144,72731,5,0
184,112,72841,1,0
160,80,72950,1,0
208,24,73169,1,0
256,80,73388,1,0
328,80,73607,5,0
360,80,73717,1,0
392,80,73826,1,0
464,80,74045,1,0
432,144,74264,1,0
384,280,74702,6,0,B|312:352|240:280,1,160
288,232,75359,1,0
328,176,75578,2,0,B|256:104|184:176,1,160
232,232,76235,1,0
272,288,76454,2,0,B|200:360|128:288,1,160
112,112,77330,6,0,B|256:0|416:112,1,320
400,272,79082,6,0,B|256:384|96:272,1,320
256,32,80833,5,0
480,192,81709,5,0
256,352,82585,5,0
32,192,83461,5,0
256,192,84337,6,0,B|328:144|360:240|416:192,1,160
400,128,84994,1,0
336,88,85213,1,0
296,88,85322,1,0
256,88,85432,1,0
216,88,85541,1,0
176,88,85651,1,0
112,128,85870,1,0
144,192,86089,5,0
192,248,86308,1,0
216,272,86417,1,0
240,296,86527,1,0
312,304,86746,1,0
384,304,86965,5,0
416,296,87074,1,0
448,272,87184,1,0
464,240,87293,1,0
464,200,87403,1,0
416,144,87622,1,0
368,192,87841,5,0
320,240,88060,1,0
296,216,88169,1,0
264,192,88279,1,0
208,144,88498,5,0
152,192,88717,1,0
96,144,88936,1,0
40,192,89155,1,0
96,248,89374,1,0
160,296,89593,2,0,B|192:344|264:336|304:296,1,160
232,232,90249,1,0
168,168,90468,2,0,B|200:120|272:128|312:168,1,160
416,232,91235,5,0
416,232,91344,1,0
488,232,91563,1,0
48,120,93096,6,0,B|120:48|192:120,1,160
120,192,93753,1,0
48,264,93972,2,0,B|120:336|192:264,1,160
256,192,94739,5,0
256,192,94848,1,0
312,152,95067,1,0
344,216,95286,1,0
408,192,95505,1,0
256,192,96600,5,0
256,192,97257,1,0
112,192,97695,5,0
112,224,97804,1,0
120,256,97914,1,0
136,288,98023,1,0
160,312,98133,1,0
192,328,98242,1,0
224,336,98352,2,0,B|280:344|360:320|376:280,1,160
408,152,99228,6,0,B|464:152|488:184,2,80
296,248,100104,2,0,B|272:296|184:296|160:248,1,160
232,192,100760,1,0
296,136,100979,2,0,B|272:88|184:88|160:136,1,160
72,192,101746,1,0
72,192,101855,1,0
0,192,102074,1,0
0,120,102293,1,0
72,120,102512,1,0
424,192,103607,6,0,B|424:288|312:288,1,160
320,216,104264,1,0
320,144,104483,2,0,B|216:144|216:240,1,160
112,192,105249,5,0
112,192,105359,1,0
40,192,105578,1,0
112,192,105797,1,0
184,192,106016,1,0
480,56,107001,5,0
480,56,107111,1,0
424,96,107330,1,0
368,56,107549,1,0
312,96,107768,1,0
256,56,107987,2,0,B|200:56|144:72|128:152,1,160
256,192,108863,5,0
256,192,109520,1,0
488,192,110505,5,0
488,192,110614,1,0
432,232,110833,1,0
384,192,111052,1,0
336,152,111271,1,0
384,272,111709,5,0
368,296,111819,1,0
344,320,111928,1,0
312,328,112038,1,0
280,336,112147,1,0
248,336,112257,1,0
216,336,112366,2,0,B|144:336|120:296,1,80
200,264,112804,6,0,B|176:224|128:208,1,80
64,232,113242,2,0,B|24:192|48:136,1,80
112,128,113680,2,0,B|152:96|144:48,1,80
200,120,114118,2,0,B|256:227|312:120,1,160
440,32,114994,6,0,B|508:104|440:176,1,160
384,232,115651,1,0
336,168,115870,1,0
256,144,116089,1,0
176,168,116308,1,0
32,240,116746,2,0,B|32:344|136:344,1,160
216,208,117622,5,0
256,272,117841,1,0
296,208,118060,1,0
336,272,118279,1,0
368,272,118388,1,0
400,272,118498,1,0
472,272,118717,5,0
472,240,118826,1,0
472,208,118936,1,0
472,176,119045,1,0
472,144,119155,1,0
472,112,119264,1,0
472,80,119374,2,0,B|408:80|360:112,1,80
384,176,119812,6,0,B|328:216|280:208,1,80
304,128,120249,2,0,B|256:80|208:80,1,80
200,152,120687,2,0,B|152:192|96:192,1,80
48,192,121125,6,0,B|32:240|56:280,1,80
120,312,121563,1,0
192,352,121782,1,0
232,352,121892,1,0
272,352,122001,1,0
256,272,122220,1,0
232,192,122439,1,0
312,192,122658,1,0
392,192,122877,2,0,B|448:192|464:144|448:96|392:96,1,160
120,192,123753,6,0,B|64:192|48:240|64:288|120:288,1,160
256,192,124629,5,0
256,192,124958,1,0
256,192,125067,1,0
384,96,125505,1,0
312,64,125724,5,0
272,56,125833,1,0
232,56,125943,1,0
192,56,126052,1,0
152,64,126162,1,0
120,80,126271,1,0
88,104,126381,2,0,B|40:144|40:200,1,80
120,192,126819,6,0,B|168:232|168:264,1,80
96,288,127257,2,0,B|88:328|152:360,1,80
208,320,127695,2,0,B|256:320|288:288,1,80
256,216,128133,2,0,B|256:80|56:72|56:216,1,320
256,296,129666,5,0
256,216,129885,2,0,B|256:80|456:72|456:216,1,320
256,32,131636,5,0
256,192,132512,1,0
256,352,133388,5,0
16,192,134264,5,0
256,192,135140,5,0
496,192,136016,5,0
256,32,136892,6,0,B|16:32|24:192,1,320
256,32,138644,6,0,B|496:32|488:192,1,320
256,336,147403,6,0,B|344:336|408:272,1,160
264,192,148279,2,0,B|192:192|168:232,2,80
400,128,149155,6,0,B|344:64|256:64,1,160
256,192,149812,1,0
256,336,150031,2,0,B|168:336|104:272,1,160
24,192,150797,5,0
24,192,150906,1,0
80,144,151125,1,0
152,168,151344,1,0
208,120,151563,1,0
264,168,151782,2,0,B|336:240|408:168,1,160
248,232,152658,6,0,B|176:304|104:232,1,160,0|0
176,192,153315,1,0
248,152,153534,2,0,B|176:80|104:152,1,160,0|0
176,48,154301,5,0
176,48,154410,1,0
256,64,154629,1,0
336,48,154848,1,0
336,128,155067,1,0
384,192,155286,2,0,B|384:248|336:264|288:248|288:192,1,160
152,112,156162,6,0,B|144:24|80:8|16:24|8:112,1,240
80,144,157038,6,0,B|88:232|152:248|216:232|224:144,1,240
152,112,157914,6,0,B|160:24|224:8|288:24|296:112,1,240
256,296,159009,1,0
472,192,159666,5,0
440,192,159775,1,0
408,192,159885,1,0
376,192,159994,1,0
344,192,160104,1,0
296,152,160322,1,0
256,200,160541,1,0
216,248,160760,5,0
184,248,160870,1,0
152,248,160979,1,0
120,248,161089,1,0
88,240,161198,1,0
64,216,161308,1,0
48,184,161417,2,0,B|24:136|24:72|56:40|96:32|144:56|136:136|192:144|240:104,1,320
336,32,162731,1,0
440,104,163169,6,0,B|440:192|328:192,1,160
272,160,163826,1,0
224,112,164045,2,0,B|112:112|112:200,1,160
200,304,164921,5,0
256,336,165140,1,0
256,272,165359,1,0
312,304,165578,1,0
312,240,165797,2,0,B|312:192|256:184|200:192|200:248,1,160
72,248,166673,6,0,B|24:248|0:192|24:144|72:144,1,160,0|0
112,192,167330,1,0
176,192,167549,2,0,B|272:192|272:88,1,160
336,88,168206,1,0
400,88,168425,6,0,B|456:88|464:144,1,80
472,192,168863,1,0
464,256,169082,1,0
280,192,169739,5,0
184,192,170067,1,0
184,192,170177,1,0
208,248,170395,1,0
168,296,170614,1,0
224,328,170833,1,0
288,328,171052,2,0,B|384:328|384:224,1,160
384,128,171819,5,0
384,128,171928,1,0
424,80,172147,1,0
480,112,172366,1,0
464,176,172585,1,0
128,192,173680,5,0
160,192,173790,1,0
192,192,173899,1,0
224,192,174009,1,0
256,192,174118,1,0
288,192,174228,1,0
320,192,174337,1,0
352,192,174447,1,0
384,192,174556,2,0,B|416:184|416:136|384:128,1,80
320,128,174994,5,0
288,128,175104,1,0
256,128,175213,1,0
224,128,175322,1,0
192,128,175432,2,0,B|152:144|128:192|152:240|192:256,1,160
296,192,176308,6,0,B|392:192,2,80
320,64,177184,6,0,B|408:56|392:128|480:128,1,160
472,192,177841,1,0
464,256,178060,2,0,B|416:256|416:328|320:320,1,160
312,192,178826,5,0
312,192,178936,1,0
248,176,179155,1,0
216,232,179374,1,0
152,240,179593,1,0
32,192,180031,1,0
192,80,180687,6,0,B|200:32|256:24|304:32|312:80,1,160
256,128,181344,1,0
192,176,181563,2,0,B|200:216|232:216|256:192|280:168|312:168|320:216,1,160
256,256,182220,1,0
192,304,182439,2,0,B|200:352|256:360|304:352|312:304,1,160
344,256,183096,1,0
368,192,183315,1,0
336,64,183753,1,0
256,168,184191,6,0,B|304:216|200:264|256:320,1,160
312,344,184848,1,0
376,328,185067,2,0,B|456:296|456:192,1,160
392,192,185724,1,0
328,192,185943,2,0,B|256:136|256:240|176:192,1,160
120,168,186600,1,0
432,104,187695,5,0
432,296,188352,5,0
352,192,188790,5,0
320,192,188899,1,0
288,192,189009,1,0
256,192,189118,1,0
224,184,189228,1,0
192,168,189337,1,0
168,144,189447,2,0,B|136:88|136:40|88:32|56:48|40:72,1,160
40,192,190322,6,0,B|104:192|128:216,2,80
40,320,191198,6,0,B|128:328|200:248,1,160
232,208,191855,1,0
272,152,192074,2,0,B|320:88|416:88,1,160
416,184,192841,5,0
416,184,192950,1,0
432,248,193169,1,0
384,288,193388,1,0
328,256,193607,1,0
200,256,194045,5,0
16,192,194702,2,0,B|16:96|120:96,1,160
136,192,195359,1,0
160,288,195578,2,0,B|256:288|256:184,1,160
256,56,196454,6,0,B|352:56|416:80|416:192,1,240
472,216,197330,6,0,B|448:256|368:280|320:232|328:184|240:184,1,240
264,120,198206,6,0,B|208:120|192:152|192:216|200:288|104:288,1,240
120,352,199082,6,0,B|56:344|40:296|32:224|32:144,1,240
32,88,199958,6,0,B|112:80|136:152|184:192|264:96,1,240
200,72,200833,6,0,B|264:16|320:72|328:144|384:136|416:104,1,240
376,56,201709,6,0,B|448:32|504:72|480:176|456:224,1,240
392,208,202585,6,0,B|376:288|336:328|296:336|216:320|120:264,1,320
256,192,203571,12,0,206527
256,192,210359,5,0
256,192,210468,1,0
256,192,210687,1,0
