osu file format v5

[General]
AudioFilename: Thrust Through the Heavens with Your Spirit.mp3
AudioLeadIn: 0
PreviewTime: -1
Countdown: 0
SampleSet: Soft
StackLeniency: 0.7
Mode: 0
LetterboxInBreaks: 0
EditorBookmarks: 28013
EditorDistanceSpacing: 0.5

[Metadata]
Title:Thrust Through the Heavens with Your Spirit!
Artist:Taku Iwasaki
Creator:lukewarmholiday
Version:Dream of the heavens
Source:
Tags:

[Difficulty]
HPDrainRate:3
CircleSize:4
OverallDifficulty:4
SliderMultiplier:1.6
SliderTickRate:1

[Events]
//Background and Video events
0,0,"a2d2bfe43fdb1ea66f284524e451a9d0.jpg"
//Break Periods
//Storyboard Layer 0 (Background)
//Storyboard Layer 1 (Fail)
//Storyboard Layer 2 (Pass)
//Storyboard Layer 3 (Foreground)
//Storyboard Sound Samples
//Background Colour Transformations
3,100,163,162,255

[TimingPoints]
250,437.956204379562,4,2,0,20,1,0

[HitObjects]
40,32,28279,2,0,B|160:24|160:168,1,160
152,200,29155,2,0,B|184:296|344:272,1,160
360,280,30031,6,0,B|448:280|448:136,1,160
448,88,30906,2,0,B|344:40|256:104,1,160
224,120,31782,6,0,B|176:168|128:160,2,80
224,40,32658,1,0
64,40,33534,6,0,B|32:128|128:232,1,160
176,192,34410,2,0,B|176:288|304:320,1,160
344,312,35286,6,0,B|400:312|432:368,2,80
344,232,36162,1,0
344,72,37038,6,0,B|248:72|248:72|208:16,1,160
128,24,37914,2,0,B|24:24|24:24|24:112,1,160
24,160,38790,5,0
72,216,39228,5,0
152,232,39666,6,0,B|152:32,1,160
232,80,40541,5,0
304,112,40979,5,0
336,184,41417,5,0
336,264,41855,6,0,B|296:288,4,40
408,224,42731,5,0
440,152,43169,5,0
416,72,43607,5,0
336,72,44045,6,0,B|320:158|272:184|200:184,1,160
232,264,44921,2,0,B|288:263|335:289|352:375,1,160
424,328,45797,6,0,B|480:296|464:256,2,80
392,256,46673,1,0
232,256,47549,6,0,B|88:272|192:152,1,160
216,104,48425,2,0,B|312:48|432:128,1,160
440,128,49301,6,0,B|488:104|488:56,2,80
440,208,50177,1,0
280,208,51052,6,0,B|216:256|216:256|136:200,1,160
88,160,51928,2,0,B|16:120|16:120|96:80,1,160
168,88,52804,5,0
248,88,53242,5,0
328,96,53680,6,0,B|336:232|440:152,1,160
424,240,54555,5,0
424,320,54993,5,0
344,320,55431,5,0
264,320,55869,6,0,B|200:320,3,40
256,192,56308,12,0,58060
456,184,58936,6,0,B|360:192|424:264|328:272,1,160
248,272,59812,1,0
88,272,60687,6,0,C|32:192|72:120|144:120,2,240
184,200,62658,6,0,C|112:168,6,40
264,200,63753,6,0,C|264:384,2,160
264,120,65067,6,0,B|335:55|432:136,1,160
408,200,65943,2,0,B|312:200,2,80
368,272,66819,6,0,B|304:376,2,80
288,272,67695,2,0,B|208:192,2,80
208,288,68571,5,0
144,288,68899,1,0
144,288,69009,1,0
144,168,69666,6,0,C|144:104,6,40
224,168,70760,5,0
296,136,71198,1,0
336,64,71636,1,0
416,72,72074,6,0,B|368:144|456:264,1,160
368,272,72950,2,0,B|296:184,2,80
368,272,73607,5,0
368,272,73826,1,0
208,272,74702,6,0,B|238:372|98:365,1,160
208,272,75578,2,0,B|94:272|140:146,1,160
208,272,76454,2,0,B|231:163|346:236,1,160
408,224,77330,6,0,B|464:304,2,80,0|0|0
400,144,78206,6,0,B|360:48|208:120,1,160
184,112,79082,6,0,B|112:48,2,80
128,168,79958,6,0,B|72:272|184:288,1,160
256,288,80833,5,0
384,192,81709,5,0
128,192,82585,5,0
456,96,83461,5,0
56,96,84337,5,0
