osu file format v9

[General]
AudioFilename: 24 Minami Tokyo Shiten no Sesta.mp3
AudioLeadIn: 1985
PreviewTime: 7473
Countdown: 0
SampleSet: Soft
StackLeniency: 0.7
Mode: 0
LetterboxInBreaks: 1

[Editor]
Bookmarks: 36440
DistanceSpacing: 0
BeatDivisor: 3
GridSize: 8

[Metadata]
Title:Minami Tokyo Shiten no Sesta
Artist:Taku Iwasaki
Creator:Sushi
Version:Normal
Source:Yakitate!! Japan
Tags:bread whistle

[Difficulty]
HPDrainRate:4
CircleSize:4
OverallDifficulty:6
ApproachRate:5
SliderMultiplier:1.46
SliderTickRate:3

[Events]
//Background and Video events
0,0,"yakitate-japan1.jpg"
//Break Periods
//Storyboard Layer 0 (Background)
//Storyboard Layer 1 (Fail)
//Storyboard Layer 2 (Pass)
//Storyboard Layer 3 (Foreground)
//Storyboard Sound Samples
//Background Colour Transformations
3,100,163,162,255

[TimingPoints]
810,444.444444444444,4,2,1,100,1,0
6288,-100,4,1,1,100,0,0
7844,-100,4,2,2,100,0,0
8510,-100,4,2,1,100,0,0
9103,-100,4,2,2,100,0,0
9399,-100,4,2,1,100,0,0
10066,-100,4,2,2,100,0,0
10214,-100,4,2,1,100,0,0
10955,-100,4,2,2,100,0,0
11103,-100,4,2,1,100,0,0
11770,-100,4,2,2,100,0,0
11992,-100,4,2,1,100,0,0
12733,-100,4,2,2,100,0,0
12881,-100,4,2,1,100,0,0
13622,-100,4,2,2,100,0,0
13770,-100,4,2,1,100,0,0
14363,-100,4,1,1,100,0,0
14659,-100,4,2,1,100,0,0
15326,-100,4,2,2,100,0,0
15548,-100,4,2,1,100,0,0
16215,-100,4,2,2,100,0,0
16437,-100,4,2,1,100,0,0
17178,-100,4,2,2,100,0,0
17326,-100,4,2,1,100,0,0
18067,-100,4,2,2,100,0,0
18215,-100,4,2,1,100,0,0
18956,-100,4,2,2,100,0,0
19253,-100,4,2,1,100,0,0
19771,-100,4,2,2,100,0,0
19994,-100,4,2,1,100,0,0
20734,-100,4,2,2,100,0,0
20883,-100,4,2,1,100,0,0
21401,-100,4,1,1,100,0,0
22068,-100,4,2,2,100,0,0
22735,-100,4,2,1,100,0,0
23401,-100,4,2,2,100,0,0
23550,-100,4,2,1,100,0,0
24290,-100,4,2,2,100,0,0
24513,-100,4,2,1,100,0,0
25179,-100,4,2,2,100,0,0
25328,-100,4,2,1,100,0,0
26069,-100,4,2,2,100,0,0
26217,-100,4,2,1,100,0,0
26958,-100,4,2,2,100,0,0
27180,-100,4,2,1,100,0,0
27847,-100,4,2,2,100,0,0
27995,-100,4,2,1,100,0,0
28587,-100,4,1,1,100,0,0
28736,-100,4,2,2,100,0,0
28884,-100,4,2,1,100,0,0
29180,-100,4,2,1,100,0,0
29625,-100,4,2,2,100,0,0
29847,-100,4,2,1,100,0,0
30514,-100,4,2,2,100,0,0
30662,-100,4,2,1,100,0,0
31403,-100,4,2,2,100,0,0
31551,-100,4,2,1,100,0,0
32292,-100,4,2,2,100,0,0
32440,-100,4,2,1,100,0,0
33181,-100,4,2,2,100,0,0
33403,-100,4,2,1,100,0,0
34736,-100,4,1,1,100,0,0
35255,-100,4,2,1,100,0,0
35625,-100,4,1,1,100,0,0
36292,-100,4,2,2,100,0,0
36513,-100,4,1,2,100,0,0
43404,-100,4,2,2,100,0,0
43553,-100,4,1,2,100,0,0
49405,-100,4,2,1,100,0,0
50294,-100,4,1,2,100,0,0
50517,-100,4,2,2,100,0,0
50665,-100,4,1,2,100,0,0
57184,-100,4,1,1,100,0,0
57332,-100,4,1,2,100,0,0
60740,-100,4,1,1,100,0,0
60963,-100,4,1,2,100,0,0
64148,-100,4,2,2,100,0,0
64661,-100,4,2,1,100,0,0
65111,-100,4,1,1,100,0,0
66000,-100,4,2,1,100,0,0
66815,-100,4,1,1,100,0,0
68297,-100,4,2,2,100,0,0
69038,-100,4,2,1,100,0,0
69556,-100,4,2,2,100,0,0
69779,-100,4,2,1,100,0,0
70520,-100,4,2,2,100,0,0
70668,-100,4,2,1,100,0,0
71409,-100,4,2,2,100,0,0
71705,-100,4,2,1,100,0,0
72223,-100,4,2,2,100,0,0
72520,-100,4,2,1,100,0,0
73038,-100,4,2,2,100,0,0
73409,-100,4,2,1,100,0,0
74073,-100,4,2,2,100,0,0
74221,-100,4,2,1,100,0,0
74816,-100,4,1,1,100,0,0
75409,-100,4,2,1,100,0,0
75854,-100,4,2,2,100,0,0
76002,-100,4,2,1,100,0,0
76743,-100,4,2,2,100,0,0
76891,-100,4,2,1,100,0,0
77632,-100,4,2,2,100,0,0
77780,-100,4,2,1,100,0,0
78521,-100,4,2,2,100,0,0
78965,-100,4,2,1,100,0,0
79410,-100,4,2,2,100,0,0
79558,-100,4,2,1,100,0,0
80299,-100,4,2,2,100,0,0
80447,-100,4,2,1,100,0,0
81185,-100,4,2,2,100,0,0
81333,-100,4,2,1,100,0,0
81855,-100,4,1,1,100,0,0
82521,-100,4,2,2,100,0,0
83259,-100,4,2,1,100,0,0
83852,-100,4,2,2,100,0,0
84000,-100,4,2,1,100,0,0
84741,-100,4,2,2,100,0,0
84889,-100,4,2,1,100,0,0
85630,-100,4,2,2,100,0,0
85778,-100,4,2,1,100,0,0
86519,-100,4,2,2,100,0,0
86667,-100,4,2,1,100,0,0
87408,-100,4,2,2,100,0,0
87556,-100,4,2,1,100,0,0
88297,-100,4,2,2,100,0,0
88445,-100,4,2,1,100,0,0
89038,-100,4,1,1,100,0,0
89630,-100,4,2,2,100,0,0
90297,-100,4,2,1,100,0,0
90964,-100,4,2,2,100,0,0
91112,-100,4,2,1,100,0,0
91853,-100,4,2,2,100,0,0
92001,-100,4,2,1,100,0,0
92742,-100,4,2,2,100,0,0
92890,-100,4,2,1,100,0,0
93648,-100,4,2,2,100,0,0
93779,-100,4,2,1,100,0,0
95186,-100,4,1,1,100,0,0
95705,-100,4,2,1,100,0,0
96075,-100,4,1,1,100,0,0
96298,-100,4,2,2,100,0,0
96446,-100,4,2,1,100,0,0
97187,-100,4,2,2,100,0,0
97335,-100,4,2,1,100,0,0
98816,-100,4,1,1,51,0,0
99409,-100,4,1,1,51,0,0
99854,-100,4,2,1,100,0,0
104365,-100,4,1,0,55,0,0

[Colours]
Combo1 : 255,128,0
Combo2 : 100,183,215
Combo3 : 240,27,15
Combo4 : 0,255,0

[HitObjects]
256,333,661,1,0
256,333,810,2,0,B|256:184,1,146,2|4
114,99,1698,2,0,B|150:57,3,48.6666666666667,8|10|8|10
256,57,2439,5,0
256,57,2587,2,0,B|256:205,1,146,2|4
398,290,3476,2,0,B|362:333,3,48.6666666666667,0|2|0|2
256,312,4217,5,0
256,312,4365,2,0,B|178:276|178:191,1,146,2|4
341,149,5254,1,8
171,149,5698,1,10
255,312,6143,2,0,B|333:276|333:191,1,146,4|4
256,198,6884,6,0,B|256:50,1,146,8|4
256,52,7476,1,4
93,71,7921,6,0,B|58:135|53:203|61:223,1,146,4|2
138,138,8661,1,6
138,138,8809,2,0,B|117:184|122:244|138:292,1,146,4|2
195,192,9550,1,2
195,192,9698,2,0,B|186:233|200:283|221:311|249:325,1,146,4|2
256,149,10587,6,0,B|256:92,3,48.6666666666667,12|8|8|10
419,64,11476,1,6
391,227,11921,1,2
256,319,12365,1,6
121,227,12809,1,2
93,64,13254,1,6
256,35,13698,6,0,B|235:85,3,48.6666666666667,2|2|4|6
150,149,14439,2,0,B|171:198,1,48.6666666666667,8|4
269,321,15032,6,0,B|290:311|311:283|325:233|317:192,1,146,6|2
376,281,15772,1,2
376,281,15921,2,0,B|389:244|393:184|373:137,1,146,4|2
452,210,16661,1,6
452,210,16809,2,0,B|457:202|452:133|417:70,1,146,4|2
256,106,17698,6,8,B|256:156,3,48.6666666666667,12|8|8|10
150,283,18587,1,6
114,120,19032,1,2
256,43,19476,1,6
398,120,19921,1,2
362,283,20365,1,6
256,156,20810,6,0,B|256:106,3,48.6666666666667,2|2|4|6
256,220,21550,2,8,B|256:269,1,48.6666666666667,8|4
157,142,22143,6,0,B|142:217|157:290,1,146,4|2
220,200,22884,1,6
220,200,23032,2,0,B|208:144|254:145|304:144|292:201,1,146,4|2
354,290,23772,1,2
354,290,23921,2,0,B|368:220|353:144,1,146,4|2
256,276,24810,6,0,B|256:326,3,48.6666666666667,12|8|8|10
121,227,25698,1,6
256,128,26143,1,2
391,227,26587,1,6
256,128,27032,1,2
121,227,27476,1,6
256,326,27921,6,0,B|256:276,3,48.6666666666667,2|2|4|6
256,163,28661,2,0,B|228:120,1,48.6666666666667,8|2
79,191,29254,6,0,B|143:234|228:234,1,146,6|2
291,149,29995,1,6
291,149,30143,2,0,B|369:148|433:190,1,146,4|2
327,227,30884,1,2
327,227,31032,2,0,B|256:276|185:227,1,146,4|2
256,78,31921,6,0,B|299:106,3,48.6666666666667,12|8|8|10
433,198,32810,1,6
270,156,33254,1,2
405,248,33698,1,6
242,205,34143,1,2
376,298,34587,6,0,B|355:340|291:354,1,97.3333333333333,6|8
296,352,35032,1,4
256,191,35476,1,4
291,28,35921,1,4
433,113,36365,6,0,B|470:149|469:220|433:248,1,146,4|2
362,163,37106,1,6
362,163,37254,2,0,B|327:128|256:128|221:163,1,146,6|2
362,248,38143,6,0,B|327:283|256:283|221:248,1,146,6|2
121,205,38884,2,0,B|327:205,1,194.666666666667,6|2
376,106,39772,5,10
376,106,39921,2,0,B|440:163|454:241,2,146,6|2|6
263,106,41106,1,0
263,106,41254,2,0,B|199:163|185:241,2,146,2|6|2
320,198,42439,1,6
320,198,42587,2,0,B|320:354,1,146,6|10
157,290,43476,6,0,B|100:283|72:234|86:177,1,146,4|2
185,234,44217,1,6
185,234,44365,2,0,B|242:241|270:290|256:347,1,146,6|2
256,177,45254,6,0,B|263:120|313:78|355:65,1,146,6|2
328,176,45995,2,0,B|363:98|476:119|483:190,1,194.666666666667,6|2
391,241,46884,5,10
391,241,47032,2,0,B|327:262|242:262,2,146,6|2|6
291,191,48217,1,0
291,191,48365,2,0,B|354:170|439:170,2,146,2|6|2
129,241,49698,2,0,B|79:262,3,48.6666666666667,12|10|8|10
129,99,50587,6,0,B|150:57|199:57|270:57,1,146,4|2
214,156,51328,1,6
214,156,51476,2,0,B|192:198|143:198|72:198,1,146,6|2
199,312,52365,6,0,B|362:312,1,146,6|2
256,248,53106,2,0,B|476:248,1,194.666666666667,6|2
419,142,53995,5,8
419,142,54143,2,0,B|376:92|277:92,2,146,6|2|6
419,142,55476,1,2
256,192,55921,12,2,57254
256,265,57698,6,0,B|256:138,1,97.3333333333333,6|0
256,168,58143,1,2
171,312,58587,1,6
341,312,59032,1,2
256,168,59476,2,0,B|221:128|157:128|121:170,1,146,6|2
218,215,60217,2,0,B|235:235|274:252|316:227|348:184|329:136|299:106|267:107,1,194.666666666667,6|4
199,71,61106,5,0
199,71,61254,2,0,B|114:71|44:106,2,146,6|2|6
256,227,62587,1,2
313,71,63032,2,0,B|398:71|469:106,2,146,6|10|6
157,120,64365,6,0,B|93:262,1,146,0|2
256,191,65254,1,4
256,191,65698,1,4
355,120,66143,6,0,B|419:262,1,146,0|2
256,191,67032,1,4
256,191,67476,1,4
136,78,67921,1,2
51,220,68365,6,0,B|121:361,1,146,4|2
139,246,69106,1,6
139,246,69254,2,0,B|68:104,1,146,4|2
171,157,69995,1,2
171,157,70143,2,0,B|241:298,1,146,4|2
256,135,71032,6,8,B|256:64,3,48.6666666666667,12|8|8|10
419,78,71921,1,6
398,241,72365,1,2
256,333,72809,1,6
114,241,73254,1,2
93,78,73698,1,6
228,177,74143,6,0,B|299:177,3,48.6666666666667,2|2|4|6
327,78,74884,2,0,B|384:78,1,48.6666666666667,8|4
461,220,75476,6,0,B|393:354,1,146,6|2
373,245,76217,1,6
373,245,76365,2,0,B|440:109,1,146,4|2
340,158,77106,1,2
340,158,77254,2,0,B|271:292,1,146,4|2
256,135,78143,6,8,B|256:84,3,48.6666666666667,12|8|8|10
129,191,79032,1,6
256,298,79476,1,2
384,191,79921,1,6
256,85,80365,1,2
129,191,80809,1,6
256,298,81254,6,0,B|256:227,3,48.6666666666667,2|2|4|6
256,135,81995,2,0,B|256:71,1,48.6666666666667,8|4
369,205,82587,6,0,B|375:259|338:308|304:324|265:315,1,146,4|2
299,205,83328,1,6
299,205,83476,2,0,B|304:248|256:280|208:248|214:205,1,146,4|2
225,321,84217,1,2
225,321,84365,2,0,B|196:314|170:298|146:263|137:225|147:197,1,146,4|2
256,85,85254,6,8,B|256:135,3,48.6666666666667,12|8|8|10
100,85,86143,1,6
228,191,86587,1,2
256,354,87032,1,6
284,191,87476,1,2
412,85,87921,1,6
256,142,88365,6,0,B|256:92,3,48.6666666666667,2|2|4|6
256,205,89106,2,0,B|256:255,1,48.6666666666667,8|0
107,319,89698,6,0,B|256:319,1,146,4|2
369,319,90439,1,6
369,319,90587,2,0,B|419:290|419:220|369:191,1,146,4|2
256,191,91328,1,2
256,191,91476,2,0,B|106:191,1,146,4|2
263,262,92365,6,8,B|313:262,3,48.6666666666667,12|8|8|10
476,262,93254,1,6
320,205,93698,1,2
469,142,94143,1,6
306,142,94587,1,2
433,35,95032,1,6
277,92,95476,6,0,B|228:120,3,48.6666666666667,0|2|4|6
129,92,96217,2,0,B|79:120,1,48.6666666666667,8|2
150,269,96809,5,6
256,142,97254,1,2
362,269,97698,1,6
256,142,98143,1,2
150,269,98587,1,6
256,290,98884,5,8
256,290,99032,2,0,B|256:135,1,146,4|6
136,255,99921,6,0,B|134:192,3,48.6666666666667,0|0|0|2
136,43,100809,1,8
136,43,100958,1,8
136,43,101106,1,8
136,43,101254,1,8
256,192,101698,12,4,104365
