osu file format v9

[General]
AudioFilename: 24 Minami Tokyo Shiten no Sesta.mp3
AudioLeadIn: 1985
PreviewTime: 7473
Countdown: 0
SampleSet: Soft
StackLeniency: 0.7
Mode: 0
LetterboxInBreaks: 1

[Editor]
Bookmarks: 36440
DistanceSpacing: 0.8
BeatDivisor: 3
GridSize: 8

[Metadata]
Title:Minami Tokyo Shiten no Sesta
Artist:Taku Iwasaki
Creator:Sushi
Version:Easy
Source:Yakitate!! Japan
Tags:bread whistle

[Difficulty]
HPDrainRate:2
CircleSize:3
OverallDifficulty:2
ApproachRate:4
SliderMultiplier:1.2
SliderTickRate:1

[Events]
//Background and Video events
0,0,"yakitate-japan1.jpg"
//Break Periods
//Storyboard Layer 0 (Background)
//Storyboard Layer 1 (Fail)
//Storyboard Layer 2 (Pass)
//Storyboard Layer 3 (Foreground)
//Storyboard Sound Samples
//Background Colour Transformations
3,100,163,162,255

[TimingPoints]
810,444.444444444444,4,2,1,100,1,0
7844,-100,4,2,2,100,0,0
8510,-100,4,2,1,100,0,0
10066,-100,4,2,2,100,0,0
10214,-100,4,2,1,100,0,0
10955,-100,4,2,2,100,0,0
11103,-100,4,2,1,100,0,0
11770,-100,4,2,2,100,0,0
11992,-100,4,2,1,100,0,0
12733,-100,4,2,2,100,0,0
12881,-100,4,2,1,100,0,0
13622,-100,4,2,2,100,0,0
13770,-100,4,2,1,100,0,0
14363,-100,4,1,1,100,0,0
14659,-100,4,2,1,100,0,0
17178,-100,4,2,2,100,0,0
17326,-100,4,2,1,100,0,0
18067,-100,4,2,2,100,0,0
18215,-100,4,2,1,100,0,0
18956,-100,4,2,2,100,0,0
19253,-100,4,2,1,100,0,0
19771,-100,4,2,2,100,0,0
19994,-100,4,2,1,100,0,0
20734,-100,4,2,2,100,0,0
20883,-100,4,2,1,100,0,0
21401,-100,4,1,1,100,0,0
22068,-100,4,2,2,100,0,0
22735,-100,4,2,1,100,0,0
24290,-100,4,2,2,100,0,0
24513,-100,4,2,1,100,0,0
25179,-100,4,2,2,100,0,0
25328,-100,4,2,1,100,0,0
26069,-100,4,2,2,100,0,0
26217,-100,4,2,1,100,0,0
26958,-100,4,2,2,100,0,0
27180,-100,4,2,1,100,0,0
27847,-100,4,2,2,100,0,0
27995,-100,4,2,1,100,0,0
28736,-100,4,2,2,100,0,0
28884,-100,4,2,1,100,0,0
29180,-100,4,2,1,100,0,0
31403,-100,4,2,2,100,0,0
31551,-100,4,2,1,100,0,0
32292,-100,4,2,2,100,0,0
32440,-100,4,2,1,100,0,0
33181,-100,4,2,2,100,0,0
33403,-100,4,2,1,100,0,0
34736,-100,4,1,1,100,0,0
35255,-100,4,2,1,100,0,0
35625,-100,4,1,1,100,0,0
36292,-100,4,2,2,100,0,0
36513,-100,4,1,2,100,0,0
43404,-100,4,2,2,100,0,0
43553,-100,4,1,2,100,0,0
49405,-100,4,2,1,100,0,0
50517,-100,4,2,2,100,0,0
50665,-100,4,1,2,100,0,0
57184,-100,4,1,1,100,0,0
57332,-100,4,1,2,100,0,0
64148,-100,4,2,2,100,0,0
64661,-100,4,2,1,100,0,0
65111,-100,4,1,1,100,0,0
66000,-100,4,2,1,100,0,0
66815,-100,4,1,1,100,0,0
68297,-100,4,2,2,100,0,0
69038,-100,4,2,1,100,0,0
70520,-100,4,2,2,100,0,0
70668,-100,4,2,1,100,0,0
71409,-100,4,2,2,100,0,0
71705,-100,4,2,1,100,0,0
72223,-100,4,2,2,100,0,0
72520,-100,4,2,1,100,0,0
73038,-100,4,2,2,100,0,0
73409,-100,4,2,1,100,0,0
74073,-100,4,2,2,100,0,0
74221,-100,4,2,1,100,0,0
74816,-100,4,1,1,100,0,0
75409,-100,4,2,1,100,0,0
77632,-100,4,2,2,100,0,0
77780,-100,4,2,1,100,0,0
78521,-100,4,2,2,100,0,0
78965,-100,4,2,1,100,0,0
79410,-100,4,2,2,100,0,0
79558,-100,4,2,1,100,0,0
80299,-100,4,2,2,100,0,0
80447,-100,4,2,1,100,0,0
81185,-100,4,2,2,100,0,0
81333,-100,4,2,1,100,0,0
81855,-100,4,1,1,100,0,0
82521,-100,4,2,2,100,0,0
83259,-100,4,2,1,100,0,0
84741,-100,4,2,2,100,0,0
84889,-100,4,2,1,100,0,0
85630,-100,4,2,2,100,0,0
85778,-100,4,2,1,100,0,0
86519,-100,4,2,2,100,0,0
86667,-100,4,2,1,100,0,0
87408,-100,4,2,2,100,0,0
87556,-100,4,2,1,100,0,0
88297,-100,4,2,2,100,0,0
88445,-100,4,2,1,100,0,0
89038,-100,4,1,1,100,0,0
89630,-100,4,2,2,100,0,0
90297,-100,4,2,1,100,0,0
91853,-100,4,2,2,100,0,0
92001,-100,4,2,1,100,0,0
92742,-100,4,2,2,100,0,0
92890,-100,4,2,1,100,0,0
93648,-100,4,2,2,100,0,0
93779,-100,4,2,1,100,0,0
95186,-100,4,1,1,100,0,0
95705,-100,4,2,1,100,0,0
96298,-100,4,2,2,100,0,0
96446,-100,4,2,1,100,0,0
97187,-100,4,2,2,100,0,0
97335,-100,4,2,1,100,0,0
99409,-100,4,1,1,51,0,0
99854,-100,4,2,1,100,0,0
104365,-100,4,1,0,55,0,0

[Colours]
Combo1 : 255,128,0
Combo2 : 100,183,215
Combo3 : 240,27,15
Combo4 : 0,255,0

[HitObjects]
256,272,810,2,0,B|256:152,1,120,2|4
256,56,1698,1,8
256,56,2143,1,8
160,56,2587,6,0,B|160:184,1,120,2|4
160,272,3476,1,0
160,272,3921,1,2
256,272,4365,6,0,B|400:272|440:144,1,240,2|0
376,72,5698,1,2
256,192,6143,12,4,7921
256,40,8809,6,0,B|112:40|112:192,1,240,4|6
208,192,10143,1,2
304,192,10587,1,4
400,192,11032,5,2
400,288,11476,2,0,B|280:288,3,120,6|2|6|2
184,288,13254,1,6
88,288,13698,2,0,B|24:264|32:192,1,120,2|6
31,97,14587,1,4
128,96,15032,6,0,B|232:96|256:144|368:144,2,240,6|4|6
128,192,17254,1,2
128,288,17698,1,12
224,288,18143,5,10
320,288,18587,2,0,B|392:288|432:240,3,120,6|2|6|2
480,168,20365,1,6
432,88,20810,2,0,B|396:44|324:44,2,120,2|4|4
384,168,22143,6,0,B|144:168,2,240,4|4|6
328,248,24365,1,2
240,288,24810,1,4
152,248,25254,5,2
104,160,25698,2,0,B|88:96|136:48,3,120,6|2|6|2
224,24,27476,1,6
288,96,27921,2,0,B|400:48,1,120,2|6
480,96,28810,5,2
480,192,29254,2,0,B|480:336|328:336,2,240,6|4|6
384,192,31476,1,2
288,192,31921,1,12
216,128,32365,5,10
203,221,32810,2,0,B|202:232|216:264|248:288|288:288|304:280,3,120,6|2|6|2
392,272,34587,2,0,B|440:256|440:208,1,80,6|8
440,184,35032,2,0,B|440:112|360:96,1,120,4|4
304,96,35772,2,0,B|256:96,1,40,8|4
168,96,36365,6,0,B|40:96,2,120,4|2|6
112,176,37698,1,2
56,256,38143,2,0,B|56:312|88:368|176:368|200:336,1,200,6|6
256,160,39772,5,8
256,160,39921,2,0,B|304:112|376:112,2,120,6|2|6
328,224,41254,1,2
256,288,41698,2,0,B|208:336|136:336,2,120,6|10|6
184,224,43032,1,2
96,192,43476,6,0,B|32:168|24:104,2,120,4|2|6
144,104,44809,1,2
232,56,45254,2,0,B|304:16|384:40|400:112,1,200,6|6
256,232,46884,5,8
256,232,47032,2,0,B|192:272|144:272,2,120,6|2|6
296,144,48365,1,2
336,232,48809,2,0,B|400:272|448:272,1,120,6|2
448,176,49698,1,12
448,176,50143,1,10
360,136,50587,6,0,B|376:96|414:72|466:80,2,120,4|2|6
280,192,51921,1,2
226,126,52365,2,0,B|192:144|176:192|184:240|232:288|272:273,1,200,6|6
328,96,53995,5,8
328,96,54143,2,0,B|288:48|224:40,2,120,6|2|6
328,192,55476,1,2
328,288,55921,2,0,B|328:360|224:400|128:360|88:272|144:200,1,360,6|2
208,136,57698,6,0,B|240:104|240:48|208:16,2,120,6|2|6
136,200,59032,1,2
64,264,59476,2,0,B|96:328|168:344|240:304,1,200,6|6
256,112,61106,5,0
256,112,61254,2,0,B|312:72|368:112,1,120,6|2
368,176,61995,1,6
368,176,62143,2,0,B|312:215|256:175,1,120,6|2
176,120,63032,2,0,B|128:80|64:80,2,120,6|2|6
112,192,64365,6,0,B|72:248|112:304,1,120,0|2
208,304,65254,1,4
208,304,65698,1,4
304,304,66143,6,0,B|343:248|303:192,1,120,0|2
208,192,67032,1,4
208,192,67476,1,4
360,72,68365,6,0,B|448:72|512:136|512:224,2,240,4|4|6
264,72,70587,1,2
264,168,71032,1,12
168,168,71476,5,10
168,264,71921,2,0,B|288:264,3,120,6|2|6|2
384,264,73698,1,6
464,216,74143,2,0,B|464:152|424:104,1,120,2|6
356,37,75032,1,4
264,40,75476,6,0,B|176:40|112:104|112:192,2,240,6|4|6
264,136,77698,1,2
264,232,78143,1,12
264,328,78587,5,10
184,280,79032,2,0,B|128:240|112:184,3,120,6|2|6|2
96,96,80809,1,6
176,48,81254,2,0,B|232:24|304:24,2,120,2|4|4
208,136,82587,6,0,B|288:224|440:208,2,240,4|4|6
288,88,84809,1,2
384,112,85254,1,4
472,152,85698,5,2
472,248,86143,2,0,B|456:320|384:328,3,120,6|2|6|2
296,328,87921,1,6
200,328,88365,2,0,B|72:328,1,120,2|6
32,248,89254,5,4
128,248,89698,2,0,B|208:248|288:216|320:128,2,240,4|4|6
128,152,91921,1,2
152,56,92365,1,4
224,120,92809,5,2
312,160,93254,2,0,B|376:192|432:184,3,120,6|2|6|2
400,96,95032,1,6
318,45,95476,2,0,B|182:45,1,120,4|6
112,96,96365,5,2
84,184,96810,2,0,B|136:192|200:160,3,120,6|2|6|2
256,240,98587,2,0,B|256:336|416:336|416:240,1,240,6|4
344,184,99921,6,0,B|296:168,3,40,0|0|0|2
205,171,100809,2,0,B|168:184,3,40,8|8|8|8
256,192,101698,12,4,104365
