osu file format v11

[General]
AudioFilename: Yonde Mirakurun! (TV Size).mp3
AudioLeadIn: 2000
PreviewTime: 51360
Countdown: 0
SampleSet: Normal
StackLeniency: 0.7
Mode: 0
LetterboxInBreaks: 0

[Editor]
DistanceSpacing: 1
BeatDivisor: 4
GridSize: 4

[Metadata]
Title:Yonde Mirakurun! (TV Size)
TitleUnicode:よんでミラクるん! (TV Size)
Artist:Taketatsu Ayana
ArtistUnicode:竹達彩奈
Creator:popner
Version:Hard
Source:Yuru Yuri
Tags:mahoushoujo yoshikawa chinatsu opening inaba-tan karenying karen kotone hinacle cuvelia
BeatmapID:174682
BeatmapSetID:56397

[Difficulty]
HPDrainRate:6
CircleSize:4
OverallDifficulty:6
ApproachRate:7
SliderMultiplier:1.6
SliderTickRate:2

[Events]
//Background and Video events
0,0,"BG.jpg"
Video,0,"OP2.avi"
//Break Periods
//Storyboard Layer 0 (Background)
//Storyboard Layer 1 (Fail)
//Storyboard Layer 2 (Pass)
//Storyboard Layer 3 (Foreground)
//Storyboard Sound Samples
//Background Colour Transformations
3,100,163,162,255

[TimingPoints]
-473,333.333333333333,4,1,1,50,1,0
10860,-100,4,1,1,50,0,0
16193,-100,4,2,1,20,0,0
16568,-100,4,2,1,80,0,0
16860,-100,4,1,1,50,0,0
36526,-100,4,1,1,30,0,0
36693,-100,4,1,1,50,0,0
38193,-133.333333333333,4,1,1,45,0,0
42693,-100,4,1,1,50,0,0
51526,-100,4,1,1,55,0,1
62026,-100,4,1,1,55,0,0
62193,-100,4,1,1,55,0,1
75526,-100,4,1,1,50,0,0
88276,-100,4,2,1,5,0,0

[Colours]
Combo1 : 0,198,255
Combo2 : 193,89,255
Combo3 : 255,147,147
Combo4 : 255,198,45
SliderBorder : 255,255,255

[HitObjects]
256,112,526,2,0,B|256:152,3,40
256,180,860,2,0,B|324:224,1,80,4|0,0:0|0:0,0:0:0
400,204,1193,1,8,0:0:0
476,184,1360,2,0,B|488:244|440:292|380:280,1,160,0|4,0:0|0:0,0:0:0
323,223,1860,1,8,0:0:0
256,180,2026,6,0,B|198:168|150:216|162:276,1,160,0|4,0:0|0:0,0:0:0
212,340,2526,2,0,B|292:340,1,80,8|0,0:0|0:0,0:0:0
372,336,2860,1,0,0:0:0
408,264,3026,2,0,P|368:192,1,80,0|8,0:0|0:0,0:0:0
292,212,3360,6,0,B|236:212|188:180|168:128,1,160
168,48,3860,1,8,0:0:0
240,84,4026,1,0,0:0:0
396,48,4360,1,0,0:0:0
356,204,4693,5,4,0:0:0
232,304,5026,1,0,0:0:0
180,364,5193,1,8,0:0:0
260,380,5360,1,0,0:0:0
400,304,5693,5,0,0:0:0
400,304,5860,1,8,0:0:0
332,260,6026,2,0,B|288:248|216:272|172:260,1,160,4|0,0:0|0:0,0:0:0
96,232,6526,2,0,B|60:160,1,80,8|0,0:0|0:0,0:0:0
104,92,6860,2,0,B|140:164,1,80
139,163,7193,1,8,0:0:0
208,208,7360,6,0,B|252:220|324:196|368:208,1,160,4|0,0:0|0:0,0:0:0
444,232,7860,2,0,B|472:264|480:304,2,80,8|0|0,0:0|0:0|0:0,0:0:0
367,207,8360,1,0,0:0:0
292,236,8526,1,8,0:0:0
252,308,8693,6,0,B|176:332|92:308,1,160,4|0,0:0|0:0,0:0:0
52,240,9193,1,8,0:0:0
132,236,9360,2,0,B|213:259|289:235,1,160,4|0,0:0|0:0,0:0:0
332,168,9859,1,8,0:0:0
252,164,10026,6,0,B|170:187|94:163,1,160,4|0,0:0|0:0,0:0:0
52,96,10526,1,8,0:0:0
132,92,10693,2,0,B|213:115|289:91,1,160,4|0,0:0|0:0,0:0:0
332,24,11193,1,8,0:0:0
472,100,11526,6,0,B|472:184,1,80,4|0,0:0|0:0,0:0:0
396,148,11860,2,0,B|396:232,1,80,8|0,0:0|0:0,0:0:0
320,196,12193,2,0,B|320:280,2,80,0|0|8,0:0|0:0|0:0,0:0:0
396,148,12693,5,0,0:0:0
320,276,13026,1,0,0:0:0
244,148,13360,1,0,0:0:0
396,148,13693,6,0,B|476:148,2,80,0|8|0,0:0|0:0|0:0,0:0:0
316,148,14193,2,0,B|236:148,1,80
200,220,14526,2,0,B|280:220,1,80,8|0,0:0|0:0,0:0:0
316,292,14860,2,0,B|236:292,2,80,0|0|8,0:0|0:0|0:0,0:0:0
396,292,15360,5,0,0:0:0
256,364,15693,1,0,0:0:0
112,292,16026,1,0,0:0:0
112,292,16193,2,0,B|108:316|84:320|64:308|60:284|76:260|100:252|104:216|100:168,1,180,0|2,0:0|0:0,0:0:0
132,36,16860,5,4,0:0:0
224,168,17193,2,0,B|308:168,1,80,8|0,0:0|0:0,0:0:0
364,116,17526,1,0,0:0:0
288,92,17693,2,0,B|244:92,2,40,0|0|8,0:0|0:0|0:0,0:0:0
344,36,18026,6,0,B|416:72|448:152,1,160,0|0,0:0|0:0,0:0:0
408,220,18526,1,8,0:0:0
488,224,18693,2,0,B|432:276|336:288,1,160
292,228,19193,1,8,0:0:0
240,168,19360,1,0,0:0:0
188,108,19526,6,0,B|99:118|43:170,2,160,0|8|0,0:0|0:0|0:0,0:0:0
240,168,20360,1,0,0:0:0
268,92,20526,1,8,0:0:0
320,152,20693,6,0,B|344:188|344:188|384:164|460:164,1,160
468,316,21193,2,0,B|428:332|388:328,1,80,8|0,0:0|0:0,0:0:0
368,208,21526,2,0,B|408:192|448:196,1,80
460,276,21860,2,0,B|420:292|380:288,1,80,8|0,0:0|0:0,0:0:0
308,260,22193,6,0,B|232:224|152:240,1,160,0|8,0:0|0:0,0:0:0
96,300,22693,2,0,B|172:336|252:320,1,160,0|8,0:0|0:0,0:0:0
308,260,23193,1,8,0:0:0
312,180,23360,1,0,0:0:0
264,116,23526,6,0,B|224:108|184:124,1,80,0|0,0:0|0:0,0:0:0
152,196,23860,2,0,B|192:204|232:188,2,80,8|0|0,0:0|0:0|0:0,0:0:0
112,128,24360,1,8,0:0:0
144,56,24526,1,8,0:0:0
224,48,24693,1,0,0:0:0
264,116,24860,5,0,0:0:0
424,136,25193,1,8,0:0:0
424,136,25360,1,0,0:0:0
408,296,25693,1,0,0:0:0
248,276,26026,1,4,0:0:0
264,116,26360,5,0,0:0:0
264,116,26526,1,8,0:0:0
264,116,26693,1,0,0:0:0
196,76,26860,2,0,B|192:32,2,40,4|0|0,0:0|0:0|0:0,0:0:0
124,108,27193,2,0,B|88:84,2,40,8|0|0,0:0|0:0|0:0,0:0:0
96,184,27526,6,0,B|96:224|112:264,1,80,4|0,0:0|0:0,0:0:0
244,228,27860,2,0,B|244:188|228:148,1,80,8|0,0:0|0:0,0:0:0
160,128,28193,2,0,B|156:208|192:284,1,160,0|8,0:0|0:0,0:0:0
312,256,28693,6,0,B|316:176|280:100,1,160,0|0,0:0|0:0,0:0:0
204,80,29193,1,8,0:0:0
140,124,29360,1,0,0:0:0
280,100,29693,5,0,0:0:0
356,124,29860,1,8,0:0:0
420,80,30026,1,0,0:0:0
344,52,30193,6,0,B|308:120|332:208,2,160,0|8|0,0:0|0:0|0:0,0:0:0
400,112,31026,1,0,0:0:0
456,172,31193,1,8,0:0:0
512,232,31360,6,0,B|476:300|392:336,1,160,0|0,0:0|0:0,0:0:0
272,320,31860,2,0,B|300:288|340:276,1,80,8|0,0:0|0:0,0:0:0
404,232,32193,2,0,B|376:200|336:188,1,80
200,188,32526,2,0,B|228:220|268:232,1,80,8|0,0:0|0:0,0:0:0
268,152,32860,6,0,B|236:100|164:100|132:152,1,160,0|8,0:0|0:0,0:0:0
132,228,33360,2,0,B|48:248,2,80,0|0|8,0:0|0:0|0:0,0:0:0
204,268,33860,1,8,0:0:0
336,180,34193,6,0,B|376:192|400:224,2,80,0|0|8,0:0|0:0|0:0,0:0:0
332,260,34693,2,0,B|364:312|436:312|468:260,1,160,0|8,0:0|0:0,0:0:0
476,184,35193,1,8,0:0:0
416,128,35360,1,0,0:0:0
336,140,35526,5,0,0:0:0
148,208,35860,2,0,B|68:196,1,80,8|0,0:0|0:0,0:0:0
284,344,36360,6,0,B|364:332,1,80,0|8,0:0|0:0,0:0:0
484,224,36693,2,0,B|404:236,1,80
264,160,37026,2,0,B|344:172,2,80,0|8|0,0:0|0:0|0:0,0:0:0
184,148,37526,5,0,0:0:0
168,156,37610,1,0,0:0:0
152,164,37693,1,0,0:0:0
160,248,37860,1,0,0:0:0
144,256,37944,1,0,0:0:0
128,264,38027,1,0,0:0:0
104,344,38193,6,0,B|160:372|224:352,1,120.000004577637,4|8,0:0|0:0,0:0:0
280,308,38693,1,0,0:0:0
340,264,38860,2,0,B|400:244|456:272,1,120.000004577637,4|8,0:0|0:0,0:0:0
496,136,39526,6,0,B|435:155|379:127,1,120.000004577637,4|8,0:0|0:0,0:0:0
320,88,40026,2,0,B|264:60|203:79,1,120.000004577637,4|8,0:0|0:0,0:0:0
144,120,40526,1,8,0:0:0
136,192,40693,1,0,0:0:0
188,244,40860,6,0,B|196:308|152:356,1,120.000004577637,0|8,0:0|0:0,0:0:0
216,320,41360,2,0,B|272:292|340:308,1,120.000004577637,0|0,0:0|0:0,0:0:0
400,328,41860,2,0,B|452:296,1,60.0000022888184,8|0,0:0|0:0,0:0:0
512,256,42193,1,0,0:0:0
492,116,42526,5,8,0:0:0
416,96,42693,2,0,B|376:88,2,40,0|0|0,0:0|0:0|0:0,0:0:0
376,164,43026,2,0,B|336:156,2,40,0|0|0,0:0|0:0|0:0,0:0:0
336,236,43360,6,0,B|248:216,1,80,4|0,0:0|0:0,0:0:0
100,180,43693,2,0,B|178:197,1,80,0|8,0:0|0:0,0:0:0
200,276,44026,2,0,B|124:308,1,80
100,180,44360,1,0,0:0:0
236,136,44526,2,0,B|312:104,1,80,8|0,0:0|0:0,0:0:0
392,108,44860,6,0,B|432:116|464:148,1,80,0|0,0:0|0:0,0:0:0
452,248,45193,2,0,B|412:240|380:208,1,80,8|0,0:0|0:0,0:0:0
236,136,45693,5,0,0:0:0
236,136,45860,1,8,0:0:0
236,136,46026,2,0,B|72:136,1,160
8,180,46526,1,8,0:0:0
76,220,46693,2,0,B|236:220,1,160,0|0,0:0|0:0,0:0:0
304,264,47193,1,8,0:0:0
236,304,47360,6,0,B|76:304,1,160,0|0,0:0|0:0,0:0:0
8,348,47860,1,8,0:0:0
8,348,48026,1,0,0:0:0
32,188,48360,6,0,B|72:188,5,40
112,188,48860,2,0,B|192:188,1,80,2|2,0:0|0:0,0:0:0
344,236,49360,5,2,0:0:0
344,236,49693,1,2,0:0:0
344,236,50026,1,2,0:0:0
296,84,50360,1,2,0:0:0
296,84,50526,1,10,0:0:0
296,84,50693,1,2,0:0:0
220,104,50860,2,0,B|180:116,3,40,2|0|0|0,0:0|0:0|0:0|0:0,0:0:0
144,128,51193,2,0,B|104:140,3,40
68,152,51526,6,0,B|56:192|68:232,1,80,6|0,0:0|0:0,0:0:0
140,274,51860,2,0,B|152:236|140:196,1,80,8|0,0:0|0:0,0:0:0
68,231,52193,6,0,B|56:271|68:311,1,80,2|0,0:0|0:0,0:0:0
140,353,52527,2,0,B|152:315|140:275,1,80,8|0,0:0|0:0,0:0:0
216,328,52860,6,0,B|296:336,1,80,0|0,0:0|0:0,0:0:0
356,284,53193,2,0,B|436:292,2,80,8|0|0,0:0|0:0|0:0,0:0:0
296,232,53693,2,0,B|256:244,2,40,0|0|8,0:0|0:0|0:0,0:0:0
372,208,54026,1,0,0:0:0
388,128,54193,6,0,B|352:112|308:108,1,80,2|0,0:0|0:0,0:0:0
232,120,54526,1,8,0:0:0
188,184,54693,1,0,0:0:0
268,188,54860,2,0,B|296:216|312:256,1,80,2|0,0:0|0:0,0:0:0
296,332,55193,1,8,0:0:0
224,368,55360,1,0,0:0:0
232,288,55526,6,0,B|192:280|152:288,1,80,0|0,0:0|0:0,0:0:0
28,224,55860,2,0,B|68:216|108:224,1,80,8|0,0:0|0:0,0:0:0
172,180,56193,1,0,0:0:0
240,136,56360,2,0,B|280:144|320:136,2,80,0|8|0,0:0|0:0|0:0,0:0:0
172,92,56860,5,2,0:0:0
92,100,57026,1,0,0:0:0
172,92,57193,2,0,B|208:72|224:28,1,80,8|0,0:0|0:0,0:0:0
300,56,57526,1,2,0:0:0
308,136,57693,1,0,0:0:0
300,56,57860,2,0,B|332:28|372:28,1,80,8|0,0:0|0:0,0:0:0
452,24,58193,5,0,0:0:0
488,96,58360,1,0,0:0:0
428,148,58526,1,8,0:0:0
360,104,58693,1,0,0:0:0
204,128,59026,5,0,0:0:0
200,148,59110,1,0,0:0:0
200,172,59193,2,0,B|204:216|232:244,1,80,8|0,0:0|0:0,0:0:0
284,180,59526,2,0,B|324:224|324:288|264:320,2,160,0|8|0,0:0|0:0|0:0,0:0:0
200,172,60360,1,0,0:0:0
269,317,60693,6,0,B|291:374|354:382|403:348,1,160
424,272,61193,2,0,B|380:268|344:288,1,80,8|0,0:0|0:0,0:0:0
269,317,61526,2,0,B|229:329,3,40
196,308,61860,2,0,B|156:320,3,40
128,292,62193,6,0,B|135:333|115:369,1,80,6|0,0:0|0:0,0:0:0
52,320,62526,2,0,B|44:278|64:242,1,80,8|0,0:0|0:0,0:0:0
140,212,62860,1,2,0:0:0
196,156,63026,1,0,0:0:0
188,76,63193,1,8,0:0:0
116,40,63360,1,0,0:0:0
44,72,63526,6,0,B|88:140|177:152,1,160,0|8,0:0|0:0,0:0:0
256,144,64026,2,0,B|345:156|389:224,1,160
408,300,64526,1,8,0:0:0
408,300,64693,1,0,0:0:0
352,356,64860,6,0,B|272:356,1,80,2|0,0:0|0:0,0:0:0
252,280,65193,2,0,B|332:280,1,80,8|0,0:0|0:0,0:0:0
388,224,65526,1,2,0:0:0
388,224,65693,1,0,0:0:0
444,168,65860,1,8,0:0:0
444,168,66026,1,0,0:0:0
496,108,66193,6,0,B|432:56|344:76,1,160,4|8,0:0|0:0,0:0:0
292,136,66693,2,0,B|356:188|444:168,1,160,4|8,0:0|0:0,0:0:0
496,108,67193,2,0,B|496:64|472:32,1,80,8|0,0:0|0:0,0:0:0
400,64,67526,6,0,B|340:84|304:40|240:60,2,160,4|8|0,0:0|0:0|0:0,0:0:0
332,208,68527,5,8,0:0:0
288,272,68693,1,0,0:0:0
212,300,68860,2,0,B|168:308|132:288,1,80,4|0,0:0|0:0,0:0:0
108,212,69193,2,0,B|152:204|188:224,1,80,8|4,0:0|0:0,0:0:0
344,244,69693,6,0,B|388:248|424:232,2,80,0|8|0,0:0|0:0|0:0,0:0:0
276,200,70193,2,0,B|192:188|116:216,1,160,4|8,0:0|0:0,0:0:0
68,152,70693,1,0,0:0:0
100,80,70860,2,0,B|184:92|260:64,1,160,0|8,0:0|0:0,0:0:0
312,124,71360,1,0,0:0:0
328,200,71526,6,0,B|328:244|300:276,1,80
244,216,71860,2,0,B|205:237|164:229,1,80,8|0,0:0|0:0,0:0:0
192,152,72193,2,0,B|192:108|220:76,1,80
276,136,72527,2,0,B|314:114|355:122,1,80,8|0,0:0|0:0,0:0:0
424,160,72860,5,0,0:0:0
424,160,73026,1,0,0:0:0
272,208,73360,1,0,0:0:0
200,172,73526,1,0,0:0:0
140,228,73693,1,0,0:0:0
180,296,73860,1,8,0:0:0
260,284,74026,1,0,0:0:0
316,136,74360,1,0,0:0:0
420,260,74693,1,0,0:0:0
420,260,74860,1,0,0:0:0
260,284,75193,6,0,B|220:292,3,40
180,300,75526,2,0,B|124:324|64:292|60:236,1,160,4|0,0:0|0:0,0:0:0
92,160,76026,2,0,B|148:136|208:168|212:224,1,160,0|4,0:0|0:0,0:0:0
136,228,76526,1,8,0:0:0
168,156,76693,6,0,B|209:107|273:106|305:152,1,160,0|4,0:0|0:0,0:0:0
324,232,77193,1,8,0:0:0
268,288,77360,1,0,0:0:0
305,152,77693,5,0,0:0:0
372,108,77860,1,0,0:0:0
452,120,78026,2,0,B|496:148|512:212|480:264,1,160,4|0,0:0|0:0,0:0:0
404,248,78526,1,0,0:0:0
324,232,78693,2,0,B|293:281|309:345|353:373,1,160
432,380,79193,1,8,0:0:0
492,328,79360,1,4,0:0:0
440,176,79693,6,0,B|396:172|364:152,1,80
308,96,80026,1,0,0:0:0
160,156,80360,5,0,0:0:0
80,168,80527,1,8,0:0:0
116,96,80693,2,0,B|136:176|112:256,1,160,4|0,0:0|0:0,0:0:0
176,348,81193,2,0,B|204:268,1,80,8|0,0:0|0:0,0:0:0
256,164,81526,2,0,B|284:240,1,80,0|0,0:0|0:0,0:0:0
340,296,81860,1,8,0:0:0
396,240,82026,6,0,B|408:144|364:84,1,160,4|0,0:0|0:0,0:0:0
304,36,82526,1,8,0:0:0
224,44,82693,1,0,0:0:0
172,104,82860,1,0,0:0:0
184,184,83026,1,0,0:0:0
248,232,83193,1,8,0:0:0
328,228,83360,6,0,B|380:220|408:176|408:176|392:116,1,160,4|0,0:0|0:0,0:0:0
368,40,83860,1,8,0:0:0
292,64,84026,2,0,B|240:72|212:116|212:116|228:176,1,160,4|0,0:0|0:0,0:0:0
252,252,84526,1,8,0:0:0
192,308,84693,5,4,0:0:0
104,304,84860,2,0,B|64:324,2,40,0|0|0,0:0|0:0|0:0,0:0:0
84,216,85193,2,0,B|48:200,2,40,8|0|0,0:0|0:0|0:0,0:0:0
160,172,85526,2,0,B|164:132,2,40,0|0|0,0:0|0:0|0:0,0:0:0
232,228,85860,2,0,B|272:220,2,40,8|0|0,0:0|0:0|0:0,0:0:0
156,248,86193,5,6,0:0:0
156,248,86360,1,2,0:0:0
156,248,86693,1,2,0:0:0
232,228,86860,2,0,B|272:220|305:197,1,80,2|2,0:0|0:0,0:0:0
312,116,87193,2,0,B|272:124|238:146,1,80,2|2,0:0|0:0,0:0:0
220,304,87693,1,0,0:0:0
368,248,88026,1,0,0:0:0
384,256,88110,1,0,0:0:0
400,264,88193,1,6,0:0:0
256,192,88276,12,0,89526,0:0:0
