osu file format v9

[General]
AudioFilename: Watashi wa Watashi no Michi wo Iku - Taketatsu Ayana.mp3
AudioLeadIn: 0
PreviewTime: 85756
Countdown: 0
SampleSet: Normal
StackLeniency: 0.6
Mode: 0
LetterboxInBreaks: 1

[Editor]
Bookmarks: 10101,26600,36599,60097,76856,86595,103843,116592,134591,139840,158589
DistanceSpacing: 0.8
BeatDivisor: 4
GridSize: 8

[Metadata]
Title:Watashi wa Watashi no Michi wo Iku
Artist:Taketatsu Ayana
Creator:konan-yoshi999
Version:Training Camp
Source:K-ON!
Tags:Nakano Azusa keion

[Difficulty]
HPDrainRate:3
CircleSize:3
OverallDifficulty:2
ApproachRate:4
SliderMultiplier:1.2
SliderTickRate:1

[Events]
//Background and Video events
0,0,"Azusa.jpg"
//Break Periods
2,53284,58764
2,104034,115264
//Storyboard Layer 0 (Background)
//Storyboard Layer 1 (Fail)
//Storyboard Layer 2 (Pass)
//Storyboard Layer 3 (Foreground)
//Storyboard Sound Samples
//Background Colour Transformations
3,100,163,162,255

[TimingPoints]
2584,500,4,1,0,70,1,0
10959,-100,4,1,1,70,0,0
11209,-100,4,1,0,70,0,0
14959,-100,4,1,1,70,0,0
15209,-100,4,1,0,70,0,0
18959,-100,4,1,1,70,0,0
19209,-100,4,1,0,70,0,0
22959,-100,4,1,1,70,0,0
23209,-100,4,1,0,70,0,0
36606,-100,4,1,0,70,0,1
44481,-100,4,1,0,70,0,0
44606,-100,4,1,0,70,0,1
53209,-100,4,1,0,70,0,0
60959,-100,4,1,1,70,0,0
61209,-100,4,1,0,70,0,0
64959,-100,4,1,1,70,0,0
65209,-100,4,1,0,70,0,0
68959,-100,4,1,1,70,0,0
69209,-100,4,1,0,70,0,0
72959,-100,4,1,1,70,0,0
73209,-100,4,1,0,70,0,0
86606,-100,4,1,0,70,0,1
94481,-100,4,1,0,70,0,0
94606,-100,4,1,0,70,0,1
102481,-100,4,2,0,5,0,0
118481,-200,4,2,0,70,0,0
134606,-100,4,1,0,70,0,0
140481,-100,4,1,0,70,0,0
140606,-100,4,1,0,70,0,1
148481,-100,4,1,0,70,0,0
148606,-100,4,1,0,70,0,1
156481,-100,4,1,0,70,0,0
156606,-100,4,1,0,70,0,1
158606,-100,4,1,0,70,0,0

[Colours]
Combo1 : 128,255,128
Combo2 : 0,128,0
Combo3 : 0,255,0
Combo4 : 128,255,0

[HitObjects]
256,48,10084,1,4
200,128,10584,6,0,B|240:152|272:152|312:128,1,120,2|4
312,224,11584,2,0,B|271:248|239:248|199:224,1,120,2|0
176,272,12334,1,0
152,320,12584,2,0,B|256:376|352:320,1,210,2|2
256,248,14084,5,4
256,152,14584,5,2
368,144,15084,2,0,B|351:103|320:48|256:24|192:48|160:104|144:152,1,300,4|0
168,184,16584,2,0,B|194:228|258:260|322:228|344:184,1,210,2|2
256,16,18084,5,4
192,88,18584,6,0,B|120:88|88:168,1,120,2|4
192,200,19584,2,0,B|192:336,2,120,2|0|2
192,200,21084,2,0,B|296:200,1,90,0|2
384,88,22084,5,4
384,192,22584,5,2
384,288,23084,1,4
288,288,23584,2,0,B|144:288|144:112,1,240,2|2
144,32,25084,2,0,B|256:32,1,90,2|2
256,144,26084,5,4
256,288,26834,6,0,B|256:400,2,90,2|0|2
256,208,27959,2,0,B|312:208|352:208|384:208|424:208,1,150,2|4
448,208,28834,2,2,B|448:320,2,90,2|0|2
448,112,30084,1,8
448,112,30334,1,8
352,112,30834,6,0,B|304:112|240:112,1,90,2|2
192,112,31584,2,0,B|96:112,2,90,2|2|2
256,192,32584,12,4,36584
128,192,37084,5,8
128,96,37584,1,0
176,96,37834,1,0
224,96,38084,1,8
320,96,38584,2,0,B|320:224,2,120,0|8|0
368,96,39834,1,0
416,96,40084,1,8
416,192,40584,6,0,B|416:328,1,120,2|10
320,312,41584,2,0,B|192:312,1,120,2|10
200,224,42584,5,0
200,128,43084,1,8
112,176,43584,1,0
16,176,44084,1,12
16,80,44584,6,0,B|64:16|112:80,1,120,0|8
208,88,45584,2,0,B|256:24|304:88,1,120,0|8
352,176,46584,6,0,B|400:288,1,120,0|8
304,288,47584,2,0,B|256:176,1,120,0|8
160,176,48584,5,2
160,176,49084,2,0,B|80:176|80:272,1,120,10|0
80,344,50084,1,8
176,344,50584,1,2
176,344,50834,6,0,B|288:344,1,90,0|8
256,192,51834,12,4,53084
256,64,60084,5,4
256,160,60584,5,2
152,176,61084,2,0,B|165:254|229:287|280:277|319:270|355:216|360:182|356:163,1,300,4|0
360,128,62584,1,2
256,160,63084,2,0,B|256:64,1,90,0|2
352,192,64084,5,4
256,192,64584,5,2
256,192,65084,2,0,B|256:32|416:32,1,240,4|0
448,32,66334,1,0
448,80,66584,2,0,B|448:224|304:224,1,210,2|2
256,320,68084,5,4
256,224,68584,5,2
256,224,69084,2,0,B|320:144|192:144|272:48,2,180,4|0|0
208,304,71084,2,0,B|320:304,1,90,0|2
256,192,72084,5,4
304,112,72584,5,2
208,112,73084,1,4
112,112,73584,2,0,B|32:224|176:224|96:352,1,240
160,336,74834,2,0,B|232:336,1,60
272,336,75334,2,0,B|328:336,1,30
256,224,76084,5,4
256,96,76834,6,0,B|256:-16,2,90,2|0|2
256,176,77959,2,0,B|200:176|160:176|128:176|88:176,1,150,2|4
64,176,78834,2,2,B|64:64,2,90,2|0|2
64,272,80084,1,8
64,272,80334,1,8
160,272,80834,6,0,B|208:272|272:272,1,90,2|2
320,272,81584,2,0,B|416:272,2,90,2|2|2
256,192,82584,12,0,86084
400,192,86584,6,0,B|400:132,2,60,0|0|8
400,288,87584,1,0
352,288,87834,1,0
304,288,88084,1,8
192,288,88584,2,0,B|192:160,2,120,0|8|0
144,288,89834,1,0
96,288,90084,1,8
96,192,90584,6,0,B|96:56,1,120,2|10
192,72,91584,2,0,B|320:72,1,120,2|10
312,160,92584,5,0
312,256,93084,1,8
400,208,93584,1,0
496,208,94084,1,12
496,304,94584,6,0,B|448:368|400:304,1,120,0|8
304,296,95584,2,0,B|256:360|208:296,1,120,0|8
160,208,96584,6,0,B|112:96,1,120,0|8
208,96,97584,2,0,B|256:208,1,120,0|8
352,208,98584,5,2
352,208,99084,2,0,B|432:208|432:112,1,120,10|0
432,40,100084,1,8
336,40,100584,1,2
336,40,100834,6,0,B|224:40,1,90,0|8
240,160,101834,2,0,B|336:160,1,90
256,192,102584,12,0,103834
256,192,116584,12,4,118584
256,64,119084,5,8
320,128,120084,1,8
256,192,121084,1,8
192,128,122084,2,0,B|128:128,1,60,8|0
80,128,123084,5,8
80,224,124084,1,8
176,224,125084,1,8
176,320,126084,6,2,B|240:320,1,60,10|2
288,320,127084,1,10
352,256,128084,1,10
416,192,129084,1,10
480,128,130084,1,10
480,128,130584,6,0,B|240:128,1,240,2|10
192,128,133084,2,0,B|128:128,2,60,0|8|0
256,192,134584,12,4,136584
192,48,137834,6,0,B|336:48,1,120,2|2
320,336,139834,6,0,B|176:336,1,120,2|2
144,336,140584,5,8
32,336,141084,1,0
32,224,141584,1,8
144,224,142084,1,0
32,160,142584,5,8
144,160,143084,1,0
144,48,143584,1,8
32,48,144084,1,0
88,112,144584,6,0,B|208:112,1,120,8|0
304,192,145584,2,0,B|176:192,1,120,8|0
256,288,146584,2,0,B|384:336,1,120,8|0
256,288,147584,2,0,B|128:336,1,120,8|0
120,208,148584,6,0,B|200:208|200:112,1,120,8|0
320,136,149584,2,0,B|320:216|416:216,1,120,8|0
272,328,150584,6,0,B|272:248|176:248,1,120,8|0
200,128,151584,2,0,B|280:128|280:32,1,120,8|0
384,112,152584,5,8
304,192,153084,1,0
384,272,153584,1,8
304,192,154084,1,0
192,192,154834,6,0,B|72:192,1,120,2|2
320,192,155834,2,0,B|440:192,1,120,2|2
256,192,156584,12,4,158584
