osu file format v9

[General]
AudioFilename: Watashi wa Watashi no Michi wo Iku - Taketatsu Ayana.mp3
AudioLeadIn: 0
PreviewTime: 85756
Countdown: 0
SampleSet: Normal
StackLeniency: 0.6
Mode: 0
LetterboxInBreaks: 1

[Editor]
Bookmarks: 10101,26600,36599,60097,76595,86595,103843,116592,134591,139840,158589
DistanceSpacing: 0.8
BeatDivisor: 4
GridSize: 8

[Metadata]
Title:Watashi wa Watashi no Michi wo Iku
Artist:Taketatsu Ayana
Creator:konan-yoshi999
Version:School Festival
Source:K-ON
Tags:Nakano Azusa

[Difficulty]
HPDrainRate:5
CircleSize:3
OverallDifficulty:5
ApproachRate:5
SliderMultiplier:1.5
SliderTickRate:1

[Events]
//Background and Video events
0,0,"Azusa.jpg"
//Break Periods
2,53284,58884
2,104034,115384
2,158784,165384
//Storyboard Layer 0 (Background)
//Storyboard Layer 1 (Fail)
//Storyboard Layer 2 (Pass)
//Storyboard Layer 3 (Foreground)
//Storyboard Sound Samples
//Background Colour Transformations
3,100,163,162,255

[TimingPoints]
2584,500,4,1,0,70,1,0
10959,-100,4,1,1,70,0,0
11209,-100,4,1,0,70,0,0
14959,-100,4,1,1,70,0,0
15209,-100,4,1,0,70,0,0
18959,-100,4,1,1,70,0,0
19209,-100,4,1,0,70,0,0
22959,-100,4,1,1,70,0,0
23209,-100,4,1,0,70,0,0
36606,-100,4,1,0,70,0,1
44481,-100,4,1,0,70,0,0
44606,-100,4,1,0,70,0,1
53106,-100,4,1,0,70,0,0
60959,-100,4,1,1,70,0,0
61209,-100,4,1,0,70,0,0
64959,-100,4,1,1,70,0,0
65209,-100,4,1,0,70,0,0
68959,-100,4,1,1,70,0,0
69209,-100,4,1,0,70,0,0
72959,-100,4,1,1,70,0,0
73209,-100,4,1,0,70,0,0
86606,-100,4,1,0,70,0,1
94481,-100,4,1,0,70,0,0
94606,-100,4,1,0,70,0,1
102481,-100,4,2,0,5,0,0
118592,-200,4,2,0,70,0,0
134591,-100,4,1,0,70,0,0
140606,-100,4,1,0,70,0,1
148481,-100,4,1,0,70,0,0
148606,-100,4,1,0,70,0,1
156481,-100,4,1,0,70,0,0
156606,-100,4,1,0,70,0,1
158606,-100,4,1,0,70,0,0
190211,-100,4,2,0,5,0,0

[Colours]
Combo1 : 128,255,128
Combo2 : 0,128,0
Combo3 : 0,255,0
Combo4 : 128,255,0

[HitObjects]
256,48,10084,1,4
256,160,10584,5,2
320,256,11084,2,0,B|256:336|184:248,1,150,4|0
194,259,11709,2,8,B|96:152,1,112.5
80,136,12334,1,8
128,104,12584,2,0,B|160:72,7,37.5,2|0|0|2|0|0|2|2
256,192,14084,5,4
256,80,14584,5,2
256,192,15084,2,0,B|256:288|368:288,1,150,4|0
349,287,15709,2,8,B|480:288,1,112.5
464,224,16334,1,8
464,168,16584,2,0,B|464:40|288:40|288:168,1,262.5,2|2
256,192,18084,5,4
120,112,18584,6,0,B|64:112|64:176,1,75,2|0
64,216,19084,2,0,B|64:296|160:296,1,112.5,4|0
192,296,19709,2,0,B|296:296,1,75,8|0
267,296,20084,2,8,B|368:296,1,75
400,296,20584,2,0,B|456:296,7,37.5,2|0|0|2|0|0|2|0
256,40,22084,5,4
256,144,22584,5,2
184,240,23084,2,0,B|272:240,1,75,4|0
320,240,23584,1,0
320,240,23709,1,8
384,240,23959,1,0
384,240,24084,2,8,B|384:144,1,75
384,112,24584,2,0,B|480:112,2,75,2|0|2
320,112,25334,1,0
320,112,25459,1,2
256,32,26084,5,4
336,192,26834,5,2
256,232,27209,1,0
176,192,27584,1,2
256,152,27959,2,2,B|256:96|328:64|368:80|400:136,1,187.5,2|4
400,184,28834,2,0,B|400:312,2,112.5,2|0|2
400,152,29709,6,8,B|376:112|312:120,1,75
304,120,30084,2,8,B|264:128|232:72,1,75
120,128,30834,6,0,B|72:168|64:240,4,112.5,2|0|2|0|2
176,104,32584,2,0,B|208:88|272:80,1,75,6|0
247,83,32959,2,0,B|312:80|384:112,1,112.5,2|0
416,128,33584,2,0,B|472:160,1,37.5,2|0
256,192,34084,12,0,36084
112,160,36584,5,0
112,160,36834,2,0,B|112:112|176:112,1,75,0|8
224,112,37334,2,0,B|272:112|272:32,1,75,0|0
328,64,37834,1,0
392,64,38084,1,10
392,120,38334,6,0,B|392:168|312:168,1,75
280,168,38834,2,0,B|230:165|230:213,3,75,0|8|0|0
232,272,39834,1,0
176,272,40084,1,8
120,272,40334,6,0,B|32:272,1,75,0|2
48,336,40834,2,0,B|144:336,1,75,0|10
184,336,41334,2,0,B|264:336,1,75,0|2
320,336,41834,2,8,B|368:336,2,37.5,2|2|8
408,248,42584,6,0,B|456:248|456:184,1,75,0|0
456,144,43084,1,8
456,144,43209,1,0
456,88,43459,2,0,B|456:48|392:48,1,75
402,48,43834,2,0,B|328:48,1,75,0|12
368,192,44584,6,0,B|320:272,1,75
296,304,45084,2,0,B|208:304,1,75,8|0
182,256,45584,2,0,B|144:192,1,75
88,192,46084,2,0,B|24:192,2,37.5,8|0|0
144,192,46584,6,0,B|192:112,1,75
216,80,47084,2,0,B|304:80,1,75,8|0
329,127,47584,2,0,B|368:192,1,75
424,192,48084,2,0,B|488:192,2,37.5,8|0|0
424,256,48584,5,2
368,256,48834,1,0
312,256,49084,2,0,B|237:256,1,75,10|0
176,256,49584,1,2
112,256,49834,2,0,B|64:256,2,37.5,0|0|8
112,192,50334,1,0
112,136,50584,1,0
112,80,50834,6,0,B|200:80,1,75,0|8
187,80,51209,1,0
256,192,51834,12,4,53084
256,192,60084,5,4
256,288,60584,5,2
128,288,61084,2,0,B|128:192|128:112,1,150,4|0
128,138,61709,2,8,B|128:64|208:64,1,112.5
256,64,62334,1,8
320,64,62584,2,0,B|384:64,7,37.5,2|0|0|2|0|0|2|2
256,192,64084,5,4
144,240,64584,5,2
144,128,65084,2,0,B|152:48|256:48,1,150,4|0
251,48,65709,2,8,B|328:48|368:112,1,112.5
384,144,66334,1,8
384,200,66584,2,0,B|384:280|120:280,1,262.5,2|0
256,192,68084,5,4
200,80,68584,6,0,B|160:80|112:80,1,75,2|0
64,80,69084,2,0,B|8:80|8:88|8:216,1,150,4|0
8,224,69709,2,0,B|8:272|16:272|64:272,1,75,8|0
80,272,70084,2,0,B|126:272|126:264|126:232,1,75,8|8
128,176,70584,2,0,B|128:104,7,37.5,2|0|0|2|0|0|2|0
256,192,72084,5,4
256,192,72584,5,2
368,192,73084,2,0,B|424:192|424:80|352:80,1,150,4|0
367,81,73709,1,8
280,80,73959,1,0
280,80,74084,2,8,B|184:80,1,75
144,80,74584,2,0,B|96:88|96:168,3,75,2|0|0|0
96,160,75459,1,2
256,64,76084,5,4
176,192,76834,5,2
256,152,77209,1,0
336,192,77584,1,2
256,232,77959,2,2,B|256:288|184:320|144:304|112:248,1,187.5,2|4
112,200,78834,2,0,B|112:72,2,112.5,2|0|2
112,232,79709,6,8,B|136:272|200:264,1,75
208,264,80084,2,8,B|248:256|280:312,1,75
392,256,80834,6,0,B|440:216|448:144,4,112.5,2|0|2|0|2
336,280,82584,2,0,B|304:296|240:304,1,75,6|0
232,304,82959,2,0,B|168:304|112:272,1,112.5,2|0
72,248,83584,2,0,B|24:208,1,37.5,2|0
256,192,84209,12,0,86084
208,144,86584,1,4
208,208,86834,2,0,B|144:208,2,37.5,0|0|8
208,272,87334,2,0,B|208:320|288:320,1,75
320,320,87834,1,0
384,320,88084,1,8
384,256,88334,6,0,B|384:208|304:208,1,75
272,208,88834,2,0,B|224:208|224:128,3,75,0|8|0|0
224,96,89834,1,0
224,40,90084,1,8
280,40,90334,6,0,B|360:40,1,75,0|2
360,96,90834,2,0,B|456:96,1,75,0|10
496,96,91334,2,0,B|496:176,1,75,0|2
496,232,91834,2,8,B|496:280,2,37.5,2|2|8
376,240,92584,6,0,B|376:288|312:288,1,75,0|0
264,288,93084,1,8
264,288,93209,1,0
208,288,93459,2,0,B|168:288|168:224,1,75
168,208,93834,2,0,B|168:104,1,75,0|12
368,32,94584,6,0,B|280:32,1,75
296,96,95084,2,0,B|296:184,1,75,8|0
216,171,95584,2,0,B|216:96,1,75,0|0
219,32,96084,2,0,B|144:32,1,75,8|0
88,32,96584,6,0,B|88:112,1,75,0|0
88,168,97084,2,0,B|50:232,1,75,8|0
24,288,97584,2,0,B|112:288,1,75,0|0
160,280,98084,2,0,B|112:192,1,75,8|0
184,192,98584,5,2
240,192,98834,1,0
296,192,99084,2,0,B|371:192,1,75,10|0
432,192,99584,1,2
432,248,99834,2,0,B|496:248,2,37.5,0|0|8
432,304,100334,1,0
432,304,100584,1,0
376,304,100834,6,0,B|288:304,1,75,0|8
301,304,101209,1,0
304,152,101834,2,0,B|392:152,1,75,0|8
380,152,102209,1,0
256,192,102584,12,0,103834
256,192,116584,12,4,118584
256,104,119084,6,0,B|256:208,1,75,8|0
256,240,120084,1,8
312,240,120584,1,0
368,240,121084,1,8
424,240,121584,2,0,B|472:240,4,37.5,0|0|8|0|0
424,184,123084,6,0,B|320:184,1,75,8|0
288,184,124084,2,0,B|184:184,1,75,8|0
152,184,125084,2,0,B|152:80,1,75,8|0
152,48,126084,1,10
184,48,126334,1,2
216,48,126584,6,8,B|296:56,1,75,2|8
344,80,127584,2,0,B|424:144,1,75,0|8
432,176,128584,2,0,B|472:272,1,75,0|8
472,304,129584,1,0
472,304,130084,1,8
392,240,130584,6,0,B|432:240,4,37.5,0|0|8|0|0
360,240,131834,2,0,B|288:240,1,37.5,0|8
296,240,132334,1,0
264,240,132584,2,0,B|168:240,3,75,0|8|0|8
256,192,134584,12,0,136084
376,128,136584,5,4
256,128,136959,1,4
136,128,137334,1,4
144,296,137834,6,0,B|96:288|64:336,2,75,2|2|2
144,232,138584,2,0,B|72:232,2,37.5
224,232,139084,1,0
304,232,139334,2,0,B|360:232,2,37.5
304,160,139834,5,2
256,88,140084,1,2
208,160,140334,1,2
112,128,140584,6,0,B|112:232,1,75,8|0
36,203,141084,2,0,B|132:203,1,75,0|0
112,278,141584,2,0,B|112:190,1,75,8|0
187,202,142084,2,0,B|99:202,1,75
112,128,142584,5,8
176,80,142834,1,0
256,64,143084,1,0
336,80,143334,1,0
400,128,143584,1,8
336,176,143834,1,0
256,192,144084,1,0
176,176,144334,1,0
112,192,144584,6,0,B|112:288,1,75,10|0
192,272,145084,2,0,B|296:272,1,75,2|0
352,272,145584,1,2
432,272,145834,1,0
432,272,145959,1,8
258,192,146584,5,0
192,144,146834,1,0
128,96,147084,1,8
128,96,147209,1,0
176,32,147459,1,0
240,80,147709,1,0
240,80,147834,1,0
304,128,148084,1,14
48,48,148584,6,0,B|112:112,1,75
184,112,149084,2,0,B|272:112,1,75,8|0
344,112,149584,1,0
408,168,149834,1,0
472,224,150084,1,8
408,280,150334,5,0
328,280,150584,2,0,B|272:280|248:240,3,75,0|0|8|0
200,192,151584,2,0,B|160:160|176:96,2,75,0|0|8
272,240,152334,1,0
352,240,152584,5,2
352,160,152834,1,0
352,80,153084,2,0,B|256:80,1,75,10|0
208,80,153584,1,2
128,80,153834,1,0
128,80,153959,1,2
128,80,154084,1,8
208,80,154334,1,0
208,80,154584,1,0
192,192,154834,6,0,B|128:192,2,37.5,2|0|8
224,192,155209,1,2
320,192,155834,6,0,B|368:192,2,37.5,2|0|8
288,192,156209,1,2
256,192,156584,12,4,158584
88,72,166584,6,8,B|184:72|184:168|184:272|312:272,2,300,12|8|8
256,72,169084,1,0
424,72,169584,1,8
344,208,170084,1,0
176,216,170584,5,8
216,144,170834,1,0
256,72,171084,1,0
296,144,171334,1,0
328,216,171584,2,0,B|352:272,2,37.5,8|0|0
312,176,171959,1,0
128,272,172584,6,0,C|72:272,2,37.5,8|0|0
128,216,173084,2,0,C|200:216,2,37.5,0|0|0
128,160,173584,2,0,B|128:104|128:104|192:104,1,112.5,8|0
304,64,174584,6,8,B|424:168,3,150
256,192,176584,5,8
208,256,176834,1,0
160,192,177084,1,8
208,128,177334,1,0
256,64,177584,1,8
304,128,177834,1,0
304,128,177959,1,8
104,80,178584,6,0,C|104:24,2,37.5,8|0|0
104,160,179084,1,8
104,240,179334,1,0
104,320,179584,2,0,C|104:376,3,37.5,8|0|0|8
256,192,180584,12,4,181959
424,192,182584,6,0,C|400:240,1,37.5,8|0
392,248,182834,1,0
312,288,183084,2,0,C|240:288,1,37.5,8|0
248,288,183334,1,0
176,224,183584,2,0,C|176:112,3,75,8|0|8|0
176,64,184584,6,0,C|272:64,1,75,8|0
336,64,185084,1,8
336,64,185209,1,0
336,64,185334,1,0
336,144,185584,2,0,C|336:224,3,75,8|0|8|0
256,224,186584,6,0,C|160:224,1,75,8|0
112,224,187084,1,8
112,144,187334,1,0
112,64,187584,1,8
192,64,187834,2,0,C|256:64,1,37.5,0|8
256,192,188584,12,4,189959
256,192,190209,12,0,192084
