osu file format v9

[General]
AudioFilename: Watashi wa Watashi no Michi wo Iku - Taketatsu Ayana.mp3
AudioLeadIn: 0
PreviewTime: 85856
Countdown: 0
SampleSet: Normal
StackLeniency: 0.6
Mode: 0
LetterboxInBreaks: 1

[Editor]
Bookmarks: 10101,26600,36599,60097,76595,86595,103843,116592,134591,139840,158589
DistanceSpacing: 1
BeatDivisor: 4
GridSize: 8

[Metadata]
Title:Watashi wa Watashi no Michi wo Iku
Artist:Taketatsu Ayana
Creator:konan-yoshi999
Version:Budokan!
Source:K-ON
Tags:Nakano Azusa

[Difficulty]
HPDrainRate:7
CircleSize:3
OverallDifficulty:6
ApproachRate:6
SliderMultiplier:1.8
SliderTickRate:1

[Events]
//Background and Video events
0,0,"Azusa.jpg"
//Break Periods
2,53284,59034
2,104034,115534
2,158784,165534
//Storyboard Layer 0 (Background)
//Storyboard Layer 1 (Fail)
//Storyboard Layer 2 (Pass)
//Storyboard Layer 3 (Foreground)
//Storyboard Sound Samples
//Background Colour Transformations
3,100,163,162,255

[TimingPoints]
2584,500,4,1,0,70,1,0
10959,-100,4,1,1,70,0,0
11209,-100,4,1,0,70,0,0
14959,-100,4,1,1,70,0,0
15209,-100,4,1,0,70,0,0
18959,-100,4,1,1,70,0,0
19209,-100,4,1,0,70,0,0
22959,-100,4,1,1,70,0,0
23209,-100,4,1,0,70,0,0
36606,-100,4,1,0,70,0,1
44481,-100,4,1,0,70,0,0
44606,-100,4,1,0,70,0,1
53106,-100,4,1,0,70,0,0
60959,-100,4,1,1,70,0,0
61209,-100,4,1,0,70,0,0
64959,-100,4,1,1,70,0,0
65209,-100,4,1,0,70,0,0
68959,-100,4,1,1,70,0,0
69209,-100,4,1,0,70,0,0
72959,-100,4,1,1,70,0,0
73209,-100,4,1,0,70,0,0
86606,-100,4,1,0,70,0,1
94481,-100,4,1,0,70,0,0
94606,-100,4,1,0,70,0,1
102481,-100,4,2,0,5,0,0
118592,-200,4,2,0,70,0,0
134591,-100,4,1,0,70,0,0
140606,-100,4,1,0,70,0,1
148481,-100,4,1,0,70,0,0
148606,-100,4,1,0,70,0,1
156481,-100,4,1,0,70,0,0
156606,-100,4,1,0,70,0,1
158606,-100,4,1,0,70,0,0
190211,-100,4,2,0,5,0,0

[Colours]
Combo1 : 128,255,128
Combo2 : 0,128,0
Combo3 : 0,255,0
Combo4 : 128,255,0

[HitObjects]
256,112,10084,1,4
256,240,10584,5,2
368,96,11084,2,0,B|400:192|368:304,1,180,6|0
352,320,11709,1,8
256,336,11959,1,0
256,336,12084,1,8
160,320,12334,1,8
96,256,12584,5,0
32,192,12834,1,8
96,128,13084,2,0,B|96:80,3,45,0|0|0|2
256,112,14084,5,4
416,256,14584,5,2
256,256,15084,2,0,B|208:256|160:304,2,90,6|0|0
304,256,15709,1,8
400,256,15959,1,0
400,208,16084,1,8
304,208,16334,1,8
320,112,16584,5,0
256,48,16834,1,8
192,112,17084,2,0,B|144:112,3,45,0|0|0|2
256,320,18084,5,4
80,224,18584,6,0,B|80:160|176:160,1,90,2|0
224,164,19084,2,0,B|352:164|352:288,1,180,6|0
352,312,19709,2,0,B|224:312,1,90,8|0
216,312,20084,2,8,B|104:312,1,90
128,224,20584,5,0
64,160,20834,1,8
128,96,21084,2,0,B|128:48,3,45,0|0|0|2
256,240,22084,5,4
64,64,22584,6,0,B|144:64|144:144|224:144,1,180,2|6
352,144,23459,1,8
448,144,23709,1,0
448,240,23959,1,0
448,240,24084,1,8
352,240,24334,1,8
256,128,24584,5,0
192,192,24834,1,8
256,256,25084,2,0,B|256:304,3,45,0|0|0|2
256,48,26084,5,4
352,192,26834,5,2
256,96,27209,1,0
160,192,27584,1,2
256,288,27959,2,0,B|256:352|192:336|128:352|128:272,1,180,2|4
128,144,28834,2,0,B|288:144,2,135,2|2|2
128,192,29709,1,8
128,288,29959,1,8
168,288,30084,1,8
168,192,30334,1,8
384,192,30834,6,0,B|352:160|288:160,6,90,2|0|2|0|2|0|6
384,288,32584,1,4
288,288,32834,1,0
288,288,32959,1,2
192,288,33334,1,0
96,288,33584,1,0
96,288,33709,1,2
256,192,34084,12,4,36584
448,192,36834,2,0,B|448:128|368:128,1,90,0|8
448,192,37334,2,0,B|448:256|368:256,1,90,0|0
312,192,37834,1,0
256,264,38084,1,8
200,192,38334,1,0
256,120,38584,1,0
256,32,38834,6,0,B|224:32|192:48|176:88,1,90,0|8
160,192,39334,1,0
256,304,39584,1,0
352,192,39834,1,0
256,80,40084,1,8
344,32,40334,5,0
424,72,40584,1,2
480,144,40834,1,0
480,240,41084,1,10
424,312,41334,1,0
344,352,41584,1,2
256,352,41834,2,8,B|184:352,2,45,2|2|8
256,264,42334,1,0
168,264,42584,6,0,B|168:224|200:184|240:184,1,90,0|0
304,192,43084,1,8
304,192,43209,1,0
256,120,43459,1,0
256,32,43709,1,0
256,32,43834,1,0
256,120,44084,1,12
448,320,44584,5,0
448,224,44834,1,0
368,272,45084,1,8
368,176,45334,2,0,B|320:144|256:192,1,90
240,192,45709,2,0,B|192:224|128:176,1,90
112,176,46084,1,8
32,112,46334,5,0
112,48,46584,2,0,B|208:48,1,90,0|0
208,144,47084,1,8
112,144,47334,2,0,B|48:144|48:208,1,90
48,240,47709,2,0,B|48:304|112:304,1,90
144,304,48084,1,8
256,272,48334,5,0
344,248,48584,1,2
416,192,48834,1,0
344,136,49084,1,10
256,112,49334,1,0
168,136,49584,1,2
96,192,49834,2,0,B|32:192,2,45,0|2|8
168,248,50334,5,0
256,280,50584,1,0
256,192,50834,6,0,B|304:192,2,45
208,192,51209,1,8
256,192,51834,12,6,53084
256,256,60084,5,4
352,80,60584,5,2
160,80,61084,2,0,B|112:144|208:176|152:256,1,180,6|0
152,296,61709,2,0,B|264:296,1,90,8|0
288,296,62084,2,0,B|336:296|336:232,1,90,8|8
456,240,62584,6,0,B|456:304,6,45,0|0|8|0|0|0|0
456,192,63459,1,2
256,256,64084,5,4
256,64,64584,5,2
72,64,65084,2,0,B|72:136|72:136|72:160|96:160|96:160|184:160,1,180,6|0
165,160,65709,1,8
256,160,65959,1,0
256,160,66084,1,8
344,160,66334,1,8
256,264,66584,6,0,B|256:328,6,45,0|0|8|0|0|0|0
256,216,67459,1,2
424,64,68084,5,4
304,64,68584,6,0,B|176:64,1,90,2|0
120,64,69084,2,0,B|120:208,1,135,4|0
208,200,69709,1,8
296,200,69959,1,0
344,200,70084,2,8,B|408:200|408:280,1,90
416,352,70584,6,0,B|480:352,6,45,0|0|8|0|0|0|0
368,352,71459,1,2
256,256,72084,5,4
256,96,72584,5,2
256,96,73084,1,6
256,272,73459,1,0
256,272,73584,1,8
256,272,73709,1,0
168,272,73959,1,0
168,272,74084,2,8,B|104:272|104:184,1,90
112,32,74584,5,0
208,32,74834,1,8
304,32,75084,1,0
400,32,75334,1,8
400,32,75459,1,0
256,256,76084,5,4
256,96,76834,5,2
160,192,77209,1,0
256,288,77584,1,2
352,192,77959,2,0,B|416:192|400:256|416:320|336:320,1,180,2|4
208,320,78834,2,0,B|208:160,2,135,2|2|2
256,320,79709,1,8
352,320,79959,1,8
352,280,80084,1,8
256,280,80334,1,8
256,64,80834,6,0,B|224:96|224:160,6,90,2|0|2|0|2|0|6
352,64,82584,1,4
352,160,82834,1,0
352,160,82959,1,2
352,256,83334,1,0
352,352,83584,1,0
352,352,83709,1,2
256,192,84084,12,4,86084
160,352,86584,5,4
64,352,86834,1,0
64,352,86959,1,0
64,352,87084,1,8
64,256,87334,2,0,B|64:192|144:192,1,90,0|0
208,144,87834,1,0
304,144,88084,1,8
304,240,88334,1,0
208,240,88584,1,0
256,96,88834,6,0,B|320:96|320:24,2,90,0|8|0
160,192,89584,1,0
256,288,89834,1,0
352,192,90084,1,8
360,104,90334,5,0
432,152,90584,1,2
432,152,90834,1,0
432,232,91084,1,10
432,232,91334,1,0
360,280,91584,1,2
352,192,91834,2,8,B|288:192,2,45,2|2|8
264,192,92334,1,0
160,64,92584,6,0,B|160:112|160:176,1,90,0|0
160,256,93084,1,8
160,256,93209,1,0
256,256,93459,1,0
352,256,93709,1,0
352,256,93834,1,0
352,160,94084,1,12
64,64,94584,5,0
64,160,94834,1,0
144,112,95084,1,8
144,208,95334,2,0,B|192:240|256:192,1,90
272,192,95709,2,0,B|320:160|384:208,1,90
400,208,96084,1,8
480,272,96334,5,0
400,336,96584,2,0,B|304:336,1,90,0|0
304,240,97084,1,8
400,240,97334,2,0,B|464:240|464:176,1,90
464,144,97709,2,0,B|464:80|400:80,1,90
368,80,98084,1,8
256,112,98334,5,0
168,136,98584,1,2
96,192,98834,1,0
168,248,99084,1,10
256,272,99334,1,0
344,248,99584,1,2
416,192,99834,2,0,B|480:192,2,45,0|2|8
344,136,100334,5,0
256,104,100584,1,0
256,192,100834,6,0,B|208:192,2,45
304,192,101209,1,8
256,80,101834,2,0,B|320:80,2,45
208,80,102209,1,8
256,192,102584,12,0,103834
256,192,116584,12,4,118584
256,48,119084,6,0,B|208:64|184:120,1,90,8|0
256,48,120084,2,0,B|304:64|328:120,1,90,8|0
256,192,121084,1,8
304,288,121584,6,0,B|336:288|336:240,2,45,0|0|8
256,288,122334,1,0
208,288,122584,1,0
416,192,123084,6,0,B|416:144|336:144,1,90,8|0
416,192,124084,2,0,B|416:240|336:240,1,90,8|0
256,240,125084,2,0,B|224:192|272:144,1,90,8|0
288,40,126084,5,2
224,40,126334,1,2
256,96,126584,2,8,B|256:192,1,90,2|8
176,144,127584,2,0,B|176:232|248:232,1,90,0|8
336,144,128584,2,0,B|336:232|264:232,1,90,0|8
256,312,129584,1,0
256,312,130084,1,8
256,208,130584,5,0
208,208,130834,1,0
160,208,131084,1,8
112,208,131334,1,0
112,160,131584,1,0
112,112,131834,1,0
112,64,132084,1,8
160,64,132334,1,0
208,64,132584,2,0,B|256:64|256:128,3,90,0|8|0|8
256,192,134584,12,0,136084
112,32,136584,5,4
256,32,136959,1,4
400,32,137334,1,4
344,192,137834,5,2
256,192,138084,1,2
168,192,138334,1,2
208,272,138584,5,0
208,272,138709,1,0
208,272,138834,1,0
304,272,139084,5,0
304,272,139209,1,0
304,272,139334,1,0
256,192,139584,5,0
256,192,139709,1,0
256,192,139834,1,2
192,96,140084,5,2
320,96,140334,1,2
384,192,140584,5,8
384,192,140709,1,0
384,304,140959,1,0
320,304,141084,2,0,B|264:304|216:304,1,90,0|0
112,304,141584,2,0,B|112:256|112:256|192:256,1,90,8|0
160,168,142084,2,0,B|160:120|160:120|112:120,1,90
192,48,142584,5,8
192,48,142709,1,0
320,48,142959,1,0
320,48,143084,1,0
256,160,143334,1,0
320,256,143584,5,8
192,256,143834,1,0
192,128,144084,1,0
320,128,144334,1,0
192,128,144584,6,0,B|192:176|192:176|144:224,1,90,10|0
72,208,145084,2,0,B|42:178|42:178|42:130,1,90,2|0
120,80,145584,1,2
256,80,145834,1,0
256,80,145959,1,2
256,80,146084,1,8
392,80,146334,1,0
320,192,146584,5,2
192,192,146834,1,2
256,288,147084,1,8
256,288,147209,1,2
400,288,147459,1,2
400,160,147834,1,2
400,160,147959,1,0
400,160,148084,1,14
144,160,148584,6,0,B|177:193|177:193|132:239,1,90
224,304,149084,2,0,B|253:274|253:274|287:308,1,90,8|0
368,224,149584,2,0,B|334:190|334:190|379:144,1,90
288,80,150084,2,0,B|258:109|258:109|224:75,1,90,8|0
256,192,150584,5,0
256,96,150834,1,0
192,272,151084,1,8
352,160,151334,1,0
160,160,151584,1,0
320,272,151834,1,0
256,96,152084,1,8
256,192,152334,1,0
256,368,152584,5,2
256,256,152834,1,0
256,144,153084,2,0,B|256:96|256:96|288:48,1,90,10|0
400,64,153584,1,2
400,176,153834,1,0
400,176,153959,1,2
400,176,154084,1,8
48,192,154834,5,0
48,192,154959,1,0
48,192,155084,1,8
48,192,155209,1,0
464,192,155834,5,0
464,192,155959,1,0
464,192,156084,1,8
464,192,156209,1,0
256,192,156584,12,4,158584
168,208,166584,6,0,B|256:272|376:184,3,180
256,72,168584,5,8
168,112,168834,1,0
256,160,169084,1,0
344,112,169334,1,0
256,72,169584,2,0,B|256:16,3,45,8|0|0|0
344,136,170584,5,8
304,224,170834,1,0
256,312,171084,1,0
208,224,171334,1,0
168,136,171584,2,0,B|136:64,2,45,8|0|0
192,184,171959,1,0
352,112,172584,5,8
352,112,172709,1,0
352,112,172834,1,0
352,208,173084,1,0
352,208,173209,1,0
352,208,173334,1,0
352,304,173584,2,0,B|304:304|304:304|304:352|304:352|240:352,1,135,8|0
192,192,174584,6,0,B|192:80,1,90,8|0
256,192,175084,2,0,B|256:304,1,90,8|0
320,192,175584,2,0,B|320:80,1,90,8|0
256,192,176084,1,8
256,192,176209,1,0
256,192,176334,1,0
256,80,176584,5,8
144,48,176834,1,0
32,80,177084,1,8
144,48,177334,1,0
144,160,177584,1,8
144,272,177834,1,0
144,272,177959,1,0
144,272,178084,2,0,B|256:272,1,90,8|0
384,304,178584,5,8
384,304,178709,1,0
384,304,178834,1,0
496,304,179084,1,8
496,304,179209,1,0
496,304,179334,1,0
440,216,179584,2,0,B|440:160,3,45,8|0|0|0
256,192,180584,12,4,181959
320,256,182584,5,8
320,128,182834,1,0
320,128,182959,1,0
320,128,183084,1,8
192,128,183334,1,0
192,128,183459,1,0
192,128,183584,1,8
192,256,183834,1,0
192,256,183959,1,12
352,256,184584,5,8
256,96,184834,1,0
256,96,184959,1,0
256,96,185084,1,8
160,256,185334,1,0
160,256,185459,1,0
160,256,185584,1,8
352,256,185834,1,0
352,256,185959,1,8
256,104,186584,5,8
160,192,186834,1,0
160,192,186959,1,0
160,192,187084,1,8
352,192,187334,1,0
352,192,187459,1,0
352,192,187584,1,8
256,280,187834,1,0
256,280,187959,1,8
256,192,188584,12,0,189959
256,192,190209,12,0,192084
