osu file format v12

[General]
AudioFilename: ED.mp3
AudioLeadIn: 1996
PreviewTime: 55474
Countdown: 0
SampleSet: Soft
StackLeniency: 0.7
Mode: 0
LetterboxInBreaks: 0

[Editor]
Bookmarks: 11349
DistanceSpacing: 1
BeatDivisor: 4
GridSize: 32

[Metadata]
Title:Horesuto Rapundexi (TV Size)
TitleUnicode:ほねすと☆ラプンディー (TV Size)
Artist:Taketatsu Ayana
ArtistUnicode:竹達彩奈
Creator:Rotte
Version:Normal
Source:Ore no Imouto ga Konna ni Kawaii Wake ga Nai.
Tags:高坂桐乃 Kousaka Kirino ending a3272509123
BeatmapID:250196
BeatmapSetID:92171

[Difficulty]
HPDrainRate:4
CircleSize:4
OverallDifficulty:3
ApproachRate:5
SliderMultiplier:0.8
SliderTickRate:1

[Events]
//Background and Video events
0,0,"BG.jpg",0,0
Video,-380,"ED.avi"
//Break Periods
//Storyboard Layer 0 (Background)
//Storyboard Layer 1 (Fail)
//Storyboard Layer 2 (Pass)
//Storyboard Layer 3 (Foreground)
//Storyboard Sound Samples
//Background Colour Transformations
3,100,163,162,255

[TimingPoints]
474.307692307692,375,4,2,0,30,1,0
1974,-100,4,2,0,30,0,0
4974,-100,4,1,0,20,0,0
6099,-100,4,2,1,30,0,0
6474,-100,4,2,2,20,0,0
14349,-100,4,2,3,20,0,0
14443,-100,4,2,2,20,0,0
15849,-100,4,2,3,20,0,0
15943,-100,4,2,2,20,0,0
17349,-100,4,2,3,20,0,0
17443,-100,4,2,2,20,0,0
18099,-100,4,2,3,20,0,0
18193,-100,4,2,2,20,0,0
18474,-100,4,2,2,30,0,0
18849,-100,4,2,1,20,0,0
30474,-100,4,2,2,15,0,0
30849,-100,4,2,1,20,0,0
35349,-100,4,2,4,20,0,0
35443,-100,4,2,1,20,0,0
36474,-100,4,2,2,15,0,0
36568,-100,4,2,1,20,0,0
42099,-100,4,2,1,20,0,0
42349,-100,4,2,1,20,0,0
42474,-100,4,2,2,20,0,0
43974,-100,4,2,1,20,0,0
44349,-100,4,2,2,15,0,0
45474,-100,4,2,2,20,0,0
46224,-100,4,2,1,15,0,0
48099,-100,4,2,2,15,0,0
48474,-100,4,2,2,20,0,0
48849,-100,4,2,1,20,0,0
52974,-100,4,2,2,15,0,0
53068,-100,4,2,1,20,0,0
53724,-100,4,2,1,20,0,0
54099,-100,4,2,1,20,0,0
55974,-100,4,2,2,15,0,1
56068,-100,4,2,1,20,0,1
61974,-100,4,2,2,15,0,1
62068,-100,4,2,1,20,0,1
67880,-100,4,2,1,20,0,0
67974,-100,4,2,2,15,0,1
68068,-100,4,2,1,20,0,1
73974,-100,4,2,2,15,0,1
74068,-100,4,2,1,20,0,1
79974,-100,4,2,0,30,0,0
82599,-100,4,2,1,20,0,0
82974,-100,4,2,2,20,0,1
83068,-100,4,2,1,20,0,1
85599,-100,4,2,1,20,0,0
86849,-100,4,2,1,5,0,0

[Colours]
Combo1 : 204,85,225
Combo2 : 0,202,0
Combo3 : 18,124,255
Combo4 : 242,24,57

[HitObjects]
206,82,474,2,0,P|130:65|43:83,2,160,0|2|0,0:0|0:0|0:0,0:0:0:0:
84,186,2724,6,0,P|44:192|5:185,2,80,2|0|2,0:0|0:0|0:0,0:0:0:0:
206,288,4224,1,2,0:0:0:0:
329,186,4974,2,0,P|369:180|408:187,2,80
368,255,6099,1,4,0:0:0:0:
447,257,6474,6,0,P|476:229|488:192,1,80,4|8,0:0|0:0,0:0:0:0:
454,119,7224,2,0,P|417:104|377:103,1,80,0|8,0:0|0:0,0:0:0:0:
298,113,7974,1,0,0:0:0:0:
219,127,8349,2,0,P|178:132|133:133,2,80,8|0|8,0:0|0:0|0:0,0:0:0:0:
198,204,9474,6,0,P|161:220|121:229,1,80,0|8,0:0|0:0,0:0:0:0:
47,199,10224,2,0,P|30:162|21:122,2,80,0|8|0,0:0|0:0|0:0,0:0:0:0:
85,269,11349,2,0,B|112:328|135:329|135:329|168:310|168:310|208:321,1,160,8|8,0:0|0:0,0:0:0:0:
285,336,12474,6,0,P|325:334|364:321,1,80,4|8,0:0|0:0,0:0:0:0:
441,309,13224,2,0,P|454:270|456:232,1,80,0|8,0:0|0:0,0:0:0:0:
410,165,13974,2,0,B|354:137|307:184|254:159,1,160,0|0,0:0|0:0,0:0:0:0:
202,96,15099,1,8,0:0:0:0:
267,49,15474,6,0,B|310:63|322:103|322:103|297:140|308:178,1,160,0|0,0:0|0:0,0:0:0:0:
367,233,16599,1,8,0:0:0:0:
410,165,16974,2,0,B|409:140|430:127|430:127|434:60|388:18,2,160,0|0|4,0:0|0:0|0:0,0:0:0:0:
446,236,18849,5,8,0:0:0:0:
404,304,19224,2,0,P|424:340|451:369,2,80,0|8|0,0:0|0:0|0:0,0:0:0:0:
367,233,20349,1,8,0:0:0:0:
324,300,20724,2,0,P|288:319|246:329,1,80,0|8,0:0|0:0,0:0:0:0:
190,274,21474,6,0,P|147:279|105:277,1,80,2|8,0:0|0:0,0:0:0:0:
66,210,22224,2,0,P|109:205|151:207,1,80,0|8,0:0|0:0,0:0:0:0:
225,205,22974,1,0,0:0:0:0:
292,161,23349,1,8,0:0:0:0:
244,96,23724,1,0,0:0:0:0:
177,140,24099,1,8,0:0:0:0:
225,205,24474,6,0,P|255:231|294:240,1,80,2|8,0:0|0:0,0:0:0:0:
292,161,25224,2,0,P|331:170|365:198,1,80,0|8,0:0|0:0,0:0:0:0:
368,274,25974,2,0,P|368:313|362:355,2,80,0|8|0,0:0|0:0|0:0,0:0:0:0:
435,230,27099,1,8,0:0:0:0:
498,181,27474,6,0,P|498:142|504:100,1,80,2|8,0:0|0:0,0:0:0:0:
429,71,28224,2,0,P|429:110|423:152,1,80,2|8,0:0|0:0,0:0:0:0:
355,107,28974,2,0,P|319:123|277:131,2,80,2|8|8,0:0|0:0|0:0,0:0:0:0:
195,91,30474,6,0,P|165:116|121:133,1,80,4|8,0:0|0:0,0:0:0:0:
140,210,31224,2,0,P|101:217|61:216,2,80,0|8|0,0:0|0:0|0:0,0:0:0:0:
215,183,32349,1,8,0:0:0:0:
294,173,32724,2,0,P|332:183|368:204,1,80,0|8,0:0|0:0,0:0:0:0:
361,283,33474,6,0,P|323:298|282:298,1,80,2|8,0:0|0:0,0:0:0:0:
204,288,34224,2,0,P|163:288|119:297,1,80,0|8,0:0|0:0,0:0:0:0:
170,361,34974,2,0,B|215:362|248:376|248:376|288:384|328:373,1,160,0|0,0:0|0:0,0:0:0:0:
404,351,36099,1,8,0:0:0:0:
461,295,36474,6,0,P|469:251|449:206,1,80,4|8,0:0|0:0,0:0:0:0:
426,144,37224,2,0,P|433:105|426:65,2,80,0|8|0,0:0|0:0|0:0,0:0:0:0:
379,209,38349,1,8,0:0:0:0:
301,190,38724,2,0,P|263:179|220:177,1,80,0|8,0:0|0:0,0:0:0:0:
266,109,39474,6,0,P|300:87|330:57,2,80,2|8|0,0:0|0:0|0:0,0:0:0:0:
196,69,40599,1,8,0:0:0:0:
115,77,40974,2,0,P|81:99|51:129,2,80,0|8|8,0:0|0:0|0:0,0:0:0:0:
161,142,42099,6,0,L|155:169,3,26.6666666666667,8|0|0|4,0:0|0:0|0:0|0:0,0:0:0:0:
134,245,42849,2,0,P|97:257|50:255,2,80,8|0|8,0:0|0:0|0:0,0:0:0:0:
211,224,43974,2,0,P|250:216|290:218,1,80,2|8,0:0|0:0,0:0:0:0:
300,297,44724,2,0,P|261:308|222:306,2,80,0|8|4,0:0|0:0|0:0,0:0:0:0:
426,198,46224,6,0,P|394:180|350:169,1,80,0|8,0:0|0:0,0:0:0:0:
294,113,46974,2,0,P|255:100|222:78,2,80,0|8|0,0:0|0:0|0:0,0:0:0:0:
371,92,48099,1,12,0:0:0:0:
294,113,48474,6,0,P|256:129|224:151,1,80,4|8,0:0|0:0,0:0:0:0:
153,187,49224,2,0,P|115:200|74:201,1,80,0|8,0:0|0:0,0:0:0:0:
17,146,49974,2,0,P|11:107|21:66,2,80,0|8|0,0:0|0:0|0:0,0:0:0:0:
0,224,51099,1,8,0:0:0:0:
52,284,51474,6,0,P|86:302|131:310,1,80,0|8,0:0|0:0,0:0:0:0:
158,383,52224,2,0,P|194:366|221:338,1,80,0|8,0:0|0:0,0:0:0:0:
258,266,52974,6,0,P|221:249|190:224,3,80,4|8|0|8,0:0|0:0|0:0|0:0,0:0:0:0:
185,144,54474,6,0,P|146:157|107:163,2,80
253,102,55599,1,0,0:0:0:0:
332,91,55974,6,0,P|371:90|413:79,1,80,4|8,0:0|0:0,0:0:0:0:
412,159,56724,2,0,P|411:198|418:239,1,80,0|8,0:0|0:0,0:0:0:0:
471,297,57474,2,0,P|487:260|494:219,2,80,2|8|0,0:0|0:0|0:0,0:0:0:0:
410,349,58599,1,8,0:0:0:0:
356,289,58974,6,0,P|318:278|283:257,1,80,2|8,0:0|0:0,0:0:0:0:
205,277,59724,2,0,P|167:272|126:255,1,80,0|8,0:0|0:0,0:0:0:0:
61,300,60474,2,0,P|66:339|61:381,2,80,2|8|0,0:0|0:0|0:0,0:0:0:0:
24,228,61599,1,8,0:0:0:0:
94,191,61974,6,0,P|128:171|156:142,1,80,4|8,0:0|0:0,0:0:0:0:
172,63,62724,2,0,P|133:57|88:63,2,80,0|8|2,0:0|0:0|0:0,0:0:0:0:
238,107,63849,1,8,0:0:0:0:
303,61,64224,2,0,P|342:55|387:61,1,80,0|8,0:0|0:0,0:0:0:0:
441,114,64974,5,2,0:0:0:0:
386,172,65349,2,0,P|361:202|346:240,1,80,8|0,0:0|0:0,0:0:0:0:
393,304,66099,2,0,P|418:274|433:236,2,80,8|2|8,0:0|0:0|0:0,0:0:0:0:
324,345,67224,2,0,L|249:313,1,80,0|8,0:0|0:0,0:0:0:0:
184,359,67974,6,0,L|110:327,1,80,4|8,0:0|0:0,0:0:0:0:
42,284,68724,2,0,P|29:240|35:195,1,80,0|8,0:0|0:0,0:0:0:0:
65,133,69474,1,2,0:0:0:0:
114,196,69849,2,0,P|140:226|176:247,1,80,8|0,0:0|0:0,0:0:0:0:
254,250,70599,1,8,0:0:0:0:
281,174,70974,6,0,P|255:144|219:123,1,80,2|8,0:0|0:0,0:0:0:0:
146,92,71724,2,0,P|110:76|76:49,2,80,0|8|2,0:0|0:0|0:0,0:0:0:0:
212,47,72849,2,0,P|289:37|373:52,1,160,8|8,0:0|0:0,0:0:0:0:
406,122,73974,6,0,P|423:158|450:187,1,80,4|8,0:0|0:0,0:0:0:0:
493,119,74724,2,0,P|476:83|449:54,2,80,0|8|6,0:0|0:0|0:0,0:0:0:0:
450,187,75849,1,8,0:0:0:0:
373,210,76224,6,8,P|346:181|329:145,2,80,0|8|2,0:0|0:0|0:0,0:0:0:0:
431,264,77349,1,8,0:0:0:0:
431,344,77724,2,0,P|467:360|508:368,2,80,0|8|2,0:0|0:0|0:0,0:0:0:0:
361,304,78849,1,8,0:0:0:0:
288,270,79224,2,0,P|250:258|206:256,1,80,0|8,0:0|0:0,0:0:0:0:
163,320,79974,6,0,P|196:343|235:357,2,80,0|2|0,0:0|0:0|0:0,0:0:0:0:
128,247,81099,2,0,P|121:207|106:171,2,80,2|0|2,0:0|0:0|0:0,0:0:0:0:
59,288,82224,2,0,P|44:252|37:212,1,80,0|8,0:0|0:0,0:0:0:0:
36,131,82974,6,0,P|52:95|81:64,1,80,4|8,0:0|0:0,0:0:0:0:
153,34,83724,2,0,P|192:29|239:34,1,80,0|8,0:0|0:0,0:0:0:0:
301,71,84474,6,0,L|323:91,6,26.6666666666667,0|0|0|8|0|0|0,0:0|0:0|0:0|0:0|0:0|0:0|0:0,0:0:0:0:
256,192,85599,12,2,86849,0:0:0:0:
