osu file format v12

[General]
AudioFilename: ED.mp3
AudioLeadIn: 2000
PreviewTime: 55474
Countdown: 0
SampleSet: Soft
StackLeniency: 0.7
Mode: 0
LetterboxInBreaks: 0

[Editor]
Bookmarks: 11349
DistanceSpacing: 2
BeatDivisor: 3
GridSize: 32

[Metadata]
Title:Horesuto Rapundexi (TV Size)
TitleUnicode:ほねすと☆ラプンディー (TV Size)
Artist:Taketatsu Ayana
ArtistUnicode:竹達彩奈
Creator:Rotte
Version:Insane
Source:Ore no Imouto ga Konna ni Kawaii Wake ga Nai.
Tags:高坂桐乃 Kousaka Kirino ending a3272509123
BeatmapID:249303
BeatmapSetID:92171

[Difficulty]
HPDrainRate:6
CircleSize:4
OverallDifficulty:7
ApproachRate:8
SliderMultiplier:1.6
SliderTickRate:1

[Events]
//Background and Video events
0,0,"BG.jpg",0,0
Video,-380,"ED.avi"
//Break Periods
//Storyboard Layer 0 (Background)
//Storyboard Layer 1 (Fail)
//Storyboard Layer 2 (Pass)
//Storyboard Layer 3 (Foreground)
//Storyboard Sound Samples
//Background Colour Transformations
3,100,163,162,255

[TimingPoints]
474.307692307692,375,4,2,0,30,1,0
1974,-200,4,2,0,30,0,0
4974,-100,4,1,0,20,0,0
6099,-100,4,2,1,50,0,0
6474,-100,4,2,2,20,0,0
18474,-100,4,2,2,20,0,0
18599,-100,4,2,1,20,0,0
30474,-100,4,2,2,20,0,0
30599,-100,4,2,1,20,0,0
36474,-100,4,2,2,20,0,0
36599,-100,4,2,1,20,0,0
42099,-100,4,2,1,20,0,0
42474,-100,4,2,2,20,0,0
42849,-100,4,2,2,20,0,0
42974,-100,4,2,1,20,0,0
43599,-100,4,2,2,20,0,0
43745,-100,4,2,1,20,0,0
44349,-100,4,2,2,20,0,0
44474,-100,4,2,1,20,0,0
45099,-100,4,2,2,20,0,0
45224,-100,4,2,1,20,0,0
45474,-100,4,2,2,20,0,0
45599,-100,4,2,1,20,0,0
46599,-100,4,2,2,20,0,0
46724,-100,4,2,1,20,0,0
47349,-100,4,2,2,20,0,0
47474,-100,4,2,1,20,0,0
48099,-100,4,2,2,20,0,0
48224,-100,4,2,1,20,0,0
48474,-100,4,2,2,20,0,0
48599,-100,4,2,1,20,0,0
52974,-100,4,2,2,20,0,0
53099,-100,4,2,1,20,0,0
53724,-100,4,2,1,20,0,0
54099,-100,4,2,1,20,0,0
54474,-100,4,2,2,20,0,0
55599,-100,4,2,2,25,0,0
55724,-100,4,2,1,20,0,0
55974,-100,4,2,2,20,0,1
56099,-100,4,2,1,20,0,1
61974,-100,4,2,2,20,0,1
62099,-100,4,2,1,20,0,1
67880,-100,4,2,1,20,0,0
67974,-100,4,2,2,20,0,1
68099,-100,4,2,1,20,0,1
73974,-100,4,2,2,20,0,1
74099,-100,4,2,1,20,0,1
79974,-133.333333333333,4,2,1,20,0,0
82974,-100,4,2,2,20,0,1
83099,-100,4,2,1,20,0,1
85599,-100,4,2,2,20,0,0
86974,-100,4,2,2,5,0,0

[Colours]
Combo1 : 204,85,225
Combo2 : 0,202,0
Combo3 : 18,124,255
Combo4 : 242,24,57

[HitObjects]
256,192,474,1,0,0:0:0:0:
256,192,1224,1,2,0:0:0:0:
143,162,1974,6,0,P|129:127|127:82,1,80,0|2,0:0|0:0,0:0:0:0:
385,85,2724,2,0,P|383:127|369:162,1,80,0|2,0:0|0:0,0:0:0:0:
298,257,3474,5,0,0:0:0:0:
213,257,4224,5,2,0:0:0:0:
117,128,4974,5,0,0:0:0:0:
153,89,5099,1,0,0:0:0:0:
203,71,5224,1,0,0:0:0:0:
256,66,5349,1,0,0:0:0:0:
309,71,5474,1,0,0:0:0:0:
359,89,5599,1,0,0:0:0:0:
395,128,5724,1,0,0:0:0:0:
392,287,6099,6,0,B|337:340|337:340|298:358|256:342,1,160,0|4,0:0|0:0,0:0:0:0:
51,249,6849,1,8,0:0:0:0:
255,341,7224,2,0,P|207:320|184:273,1,106.666666666667,0|2,0:0|0:0,0:0:0:0:
161,202,7599,1,8,0:0:0:0:
309,192,7849,1,0,0:0:0:0:
239,219,7974,2,0,P|237:167|272:127,1,106.666666666667,2|0,0:0|0:0,0:0:0:0:
341,100,8349,2,0,P|342:153|307:193,1,106.666666666667,8|0,0:0|0:0,0:0:0:0:
271,127,8724,2,0,P|267:78|303:33,1,106.666666666667,2|2,0:0|0:0,0:0:0:0:
375,27,9099,1,8,0:0:0:0:
414,171,9349,1,0,0:0:0:0:
425,97,9474,6,0,P|486:145|471:219,1,160,4|8,0:0|0:0,0:0:0:0:
285,343,10224,2,0,P|230:331|195:295,1,106.666666666667,0|2,0:0|0:0,0:0:0:0:
149,236,10599,2,0,P|120:193|68:175,1,106.666666666667,8|0,0:0|0:0,0:0:0:0:
33,353,10974,2,0,P|88:341|123:305,1,106.666666666667,0|2,0:0|0:0,0:0:0:0:
149,236,11349,2,0,P|178:193|230:175,1,106.666666666667,8|0,0:0|0:0,0:0:0:0:
227,175,11974,1,2,0:0:0:0:
302,177,12099,2,0,P|352:194|388:237,1,106.666666666667,8|0,0:0|0:0,0:0:0:0:
457,258,12474,6,0,P|395:309|328:281,1,160,4|8,0:0|0:0,0:0:0:0:
181,111,13224,2,0,P|201:62|247:38,1,106.666666666667,0|2,0:0|0:0,0:0:0:0:
417,46,13599,2,0,P|374:74|320:69,1,106.666666666667,8|0,0:0|0:0,0:0:0:0:
442,197,13974,2,0,P|439:145|470:101,1,106.666666666667,0|2,0:0|0:0,0:0:0:0:
298,142,14349,2,0,P|343:165|366:214,1,106.666666666667,8|0,0:0|0:0,0:0:0:0:
364,288,14724,1,2,0:0:0:0:
312,342,14849,1,2,0:0:0:0:
239,357,14974,1,2,0:0:0:0:
173,321,15099,2,0,P|144:278|149:224,1,106.666666666667,8|0,0:0|0:0,0:0:0:0:
191,164,15474,6,0,P|222:207|216:258,1,106.666666666667,2|2,0:0|0:0,0:0:0:0:
73,247,15849,2,0,P|79:195|116:159,1,106.666666666667,8|0,0:0|0:0,0:0:0:0:
286,123,16224,2,0,P|244:154|191:164,1,106.666666666667,2|2,0:0|0:0,0:0:0:0:
116,159,16599,2,0,P|64:143|34:103,1,106.666666666667,8|0,0:0|0:0,0:0:0:0:
32,27,16974,1,0,0:0:0:0:
304,45,17224,5,2,0:0:0:0:
304,45,17349,2,0,P|349:77|364:124,1,106.666666666667,8|2,0:0|0:0,0:0:0:0:
373,198,17724,1,8,0:0:0:0:
442,225,17849,1,8,0:0:0:0:
502,181,17974,1,2,0:0:0:0:
492,106,18099,1,4,0:0:0:0:
329,260,18474,6,0,B|304:292|306:335|306:335|382:368,1,160,4|8,0:0|0:0,0:0:0:0:
443,225,19099,1,0,0:0:0:0:
509,259,19224,1,0,0:0:0:0:
373,198,19474,1,0,0:0:0:0:
329,260,19599,2,0,P|265:309|191:298,1,160,8|0,0:0|0:0,0:0:0:0:
209,149,20224,2,0,L|254:178,1,53.3333333333333,0|8,0:0|0:0,0:0:0:0:
177,361,20599,2,0,L|126:349,1,53.3333333333333,0|0,0:0|0:0,0:0:0:0:
10,252,20974,1,2,0:0:0:0:
15,175,21099,6,0,P|50:99|112:56,2,160,8|0|8,0:0|0:0|0:0,0:0:0:0:
208,220,22099,2,0,L|163:192,1,53.3333333333333,2|0,0:0|0:0,0:0:0:0:
190,45,22474,2,0,L|235:73,1,53.3333333333333,0|8,0:0|0:0,0:0:0:0:
375,124,22849,1,0,0:0:0:0:
375,124,22974,2,0,B|428:130|428:130|462:122|473:95,1,106.666666666667,0|2,0:0|0:0,0:0:0:0:
511,162,23349,2,0,B|489:188|451:198|451:198|451:237,1,106.666666666667,8|2,0:0|0:0,0:0:0:0:
451,308,23724,1,0,0:0:0:0:
352,195,23974,1,2,0:0:0:0:
352,195,24099,2,0,B|376:200|376:200|384:244|341:269,1,106.666666666667,8|0,0:0|0:0,0:0:0:0:
403,365,24474,6,0,P|324:382|256:345,1,160,0|8,0:0|0:0,0:0:0:0:
209,204,25099,1,2,0:0:0:0:
144,242,25224,2,0,P|92:252|42:237,1,106.666666666667,0|2,0:0|0:0,0:0:0:0:
42,162,25599,2,0,P|94:152|144:167,1,106.666666666667,8|2,0:0|0:0,0:0:0:0:
209,204,25974,2,0,P|217:257|191:301,1,106.666666666667
144,242,26349,1,8,0:0:0:0:
236,135,26599,1,2,0:0:0:0:
236,135,26724,2,0,P|187:133|144:167,1,106.666666666667,0|2,0:0|0:0,0:0:0:0:
209,204,27099,2,0,P|267:203|304:169,1,106.666666666667,8|2,0:0|0:0,0:0:0:0:
304,97,27474,6,0,P|367:134|365:213,1,160,0|8,0:0|0:0,0:0:0:0:
232,283,28099,1,0,0:0:0:0:
305,267,28224,1,8,0:0:0:0:
437,199,28474,1,2,0:0:0:0:
364,213,28599,1,8,0:0:0:0:
77,70,28974,5,2,0:0:0:0:
121,39,29099,1,0,0:0:0:0:
174,39,29224,1,0,0:0:0:0:
217,70,29349,1,8,0:0:0:0:
233,121,29474,1,0,0:0:0:0:
217,171,29599,1,0,0:0:0:0:
174,203,29724,1,2,0:0:0:0:
12,219,29974,6,0,L|55:187,1,53.3333333333333,2|8,0:0|0:0,0:0:0:0:
268,253,30474,6,0,B|237:313|172:312|172:312|131:297,1,160,4|8,0:0|0:0,0:0:0:0:
326,182,31224,2,0,P|357:227|356:277,1,106.666666666667,0|2,0:0|0:0,0:0:0:0:
427,300,31599,2,0,P|450:250|494:226,1,106.666666666667,0|2,0:0|0:0,0:0:0:0:
477,153,31974,2,0,P|421:147|375:127,1,106.666666666667,0|2,0:0|0:0,0:0:0:0:
375,128,32349,2,0,P|431:134|477:154,1,106.666666666667,8|2,0:0|0:0,0:0:0:0:
327,61,32724,2,0,P|275:67|220:63,1,106.666666666667,0|2,0:0|0:0,0:0:0:0:
148,43,33099,1,8,0:0:0:0:
102,251,33349,5,2,0:0:0:0:
176,241,33474,2,0,P|259:252|321:298,1,160,0|8,0:0|0:0,0:0:0:0:
130,175,34224,2,0,P|57:139|31:117,1,106.666666666667,0|2,0:0|0:0,0:0:0:0:
16,51,34599,1,8,0:0:0:0:
192,114,34849,1,2,0:0:0:0:
192,114,34974,2,0,P|245:136|287:163,1,106.666666666667,0|2,0:0|0:0,0:0:0:0:
347,205,35349,2,0,P|401:185|435:146,1,106.666666666667,8|2,0:0|0:0,0:0:0:0:
433,149,35724,1,2,0:0:0:0:
418,222,35849,1,2,0:0:0:0:
426,296,35974,1,2,0:0:0:0:
489,336,36099,2,0,P|507:288|502:233,1,106.666666666667,8|0,0:0|0:0,0:0:0:0:
433,149,36474,6,0,P|362:109|318:47,1,160,4|8,0:0|0:0,0:0:0:0:
104,116,37224,1,0,0:0:0:0:
200,229,37474,1,2,0:0:0:0:
200,229,37599,2,0,P|212:282|198:333,1,106.666666666667,0|0,0:0|0:0,0:0:0:0:
140,378,37974,1,0,0:0:0:0:
42,264,38224,1,2,0:0:0:0:
42,264,38349,2,0,P|30:211|44:160,1,106.666666666667,8|0,0:0|0:0,0:0:0:0:
104,116,38724,1,0,0:0:0:0:
272,246,38974,5,2,0:0:0:0:
324,298,39099,2,0,P|399:330|471:306,1,160,8|0,0:0|0:0,0:0:0:0:
290,173,39849,2,0,P|215:141|143:165,1,160,8|0,0:0|0:0,0:0:0:0:
344,225,40474,1,2,0:0:0:0:
417,238,40599,2,0,P|486:203|509:129,1,160,8|0,0:0|0:0,0:0:0:0:
290,173,41349,1,8,0:0:0:0:
103,49,41724,1,8,0:0:0:0:
238,227,42099,5,8,0:0:0:0:
174,265,42224,1,8,0:0:0:0:
101,283,42349,1,10,0:0:0:0:
26,280,42474,6,0,P|109:281|183:300,1,160,4|8,0:0|0:0,0:0:0:0:
328,338,43099,1,2,0:0:0:0:
400,356,43224,1,0,0:0:0:0:
340,219,43474,1,2,0:0:0:0:
258,194,43599,1,8,0:0:0:0:
418,137,43849,1,0,0:0:0:0:
509,166,43974,2,0,B|496:202|475:224|429:230|429:230|466:268,1,160,0|8,0:0|0:0,0:0:0:0:
273,79,44599,5,2,0:0:0:0:
326,132,44724,1,0,0:0:0:0:
250,342,45099,1,8,0:0:0:0:
185,207,45349,1,2,0:0:0:0:
169,134,45474,2,0,P|165:79|180:29,1,106.666666666667,4|0,0:0|0:0,0:0:0:0:
17,184,46099,1,2,0:0:0:0:
67,238,46224,2,0,P|53:308|19:343,1,106.666666666667,0|2,0:0|0:0,0:0:0:0:
17,184,46599,2,0,P|75:166|115:184,1,106.666666666667,8|0,0:0|0:0,0:0:0:0:
185,207,46974,5,0,0:0:0:0:
281,321,47224,1,2,0:0:0:0:
352,297,47349,1,8,0:0:0:0:
459,192,47599,1,2,0:0:0:0:
384,192,47724,1,0,0:0:0:0:
281,63,47974,1,2,0:0:0:0:
352,87,48099,1,12,0:0:0:0:
246,192,48349,5,2,0:0:0:0:
181,153,48474,2,0,P|145:120|126:67,1,106.666666666667,4|0,0:0|0:0,0:0:0:0:
181,231,48849,2,0,P|145:264|126:317,1,106.666666666667,8|0,0:0|0:0,0:0:0:0:
126,192,49224,2,0,P|74:184|21:192,1,106.666666666667,0|2,0:0|0:0,0:0:0:0:
21,192,49599,2,0,P|74:200|126:192,1,106.666666666667,8|0,0:0|0:0,0:0:0:0:
246,118,49974,1,0,0:0:0:0:
450,26,50349,1,0,0:0:0:0:
502,165,50599,1,0,0:0:0:0:
429,145,50724,2,0,P|377:143|324:165,1,106.666666666667,0|2,0:0|0:0,0:0:0:0:
346,235,51099,2,0,P|398:237|451:215,1,106.666666666667,0|2,0:0|0:0,0:0:0:0:
502,165,51474,1,0,0:0:0:0:
365,342,51849,1,0,0:0:0:0:
142,313,52224,1,0,0:0:0:0:
216,307,52349,1,2,0:0:0:0:
173,245,52474,1,2,0:0:0:0:
98,250,52599,2,0,P|111:240|159:165,1,106.666666666667,8|0,0:0|0:0,0:0:0:0:
185,27,52974,6,0,P|117:68|88:140,1,160,4|8,0:0|0:0,0:0:0:0:
471,40,53724,1,8,0:0:0:0:
403,8,53849,1,2,0:0:0:0:
330,24,53974,1,0,0:0:0:0:
277,75,54099,2,0,P|277:127|298:178,1,106.666666666667,8|0,0:0|0:0,0:0:0:0:
359,219,54474,2,0,P|383:173|386:116,1,106.666666666667,4|2,0:0|0:0,0:0:0:0:
444,234,54849,2,0,P|470:279|513:312,1,106.666666666667,4|0,0:0|0:0,0:0:0:0:
388,302,55224,2,0,P|337:305|282:321,1,106.666666666667,4|0,0:0|0:0,0:0:0:0:
223,365,55599,5,8,0:0:0:0:
283,321,55724,1,8,0:0:0:0:
281,246,55849,1,2,0:0:0:0:
85,266,55974,6,0,P|160:252|222:199,1,160,4|8,0:0|0:0,0:0:0:0:
128,55,56599,1,2,0:0:0:0:
128,55,56724,2,0,P|80:70|34:101,1,106.666666666667,0|2,0:0|0:0,0:0:0:0:
125,156,57099,2,2,P|173:141|219:110,1,106.666666666667,8|0,0:0|0:0,0:0:0:0:
286,25,57474,2,0,P|282:80|291:130,1,106.666666666667,0|2,0:0|0:0,0:0:0:0:
341,225,57849,2,0,P|401:209|444:185,1,106.666666666667,8|0,0:0|0:0,0:0:0:0:
487,84,58224,1,0,0:0:0:0:
426,288,58474,5,2,0:0:0:0:
324,319,58599,2,0,P|251:309|211:291,1,106.666666666667,8|0,0:0|0:0,0:0:0:0:
149,217,58974,1,2,0:0:0:0:
288,55,59224,1,0,0:0:0:0:
181,46,59349,2,0,P|130:58|82:87,1,106.666666666667,8|0,0:0|0:0,0:0:0:0:
71,192,59724,1,2,0:0:0:0:
277,138,59974,1,2,0:0:0:0:
340,223,60099,6,0,P|423:213|481:166,2,160,8|2|8,0:0|0:0|0:0,0:0:0:0:
331,9,61099,1,2,0:0:0:0:
375,106,61224,5,0,0:0:0:0:
375,106,61349,1,0,0:0:0:0:
375,106,61474,1,0,0:0:0:0:
375,106,61599,1,8,0:0:0:0:
414,375,61974,5,4,0:0:0:0:
110,274,62349,1,8,0:0:0:0:
372,91,62724,2,0,P|381:144|367:196,1,106.666666666667,0|2,0:0|0:0,0:0:0:0:
277,138,63099,1,8,0:0:0:0:
110,274,63349,1,2,0:0:0:0:
110,274,63474,2,0,P|99:195|118:118,1,160,0|8,0:0|0:0,0:0:0:0:
416,0,64224,1,0,0:0:0:0:
475,204,64474,5,2,0:0:0:0:
388,266,64599,2,0,P|313:287|232:280,1,160,8|0,0:0|0:0,0:0:0:0:
117,118,65224,1,0,0:0:0:0:
210,65,65349,2,0,P|285:44|366:51,1,160,8|0,0:0|0:0,0:0:0:0:
460,99,65849,5,0,0:0:0:0:
475,150,65974,1,0,0:0:0:0:
475,204,66099,1,8,0:0:0:0:
76,192,66474,5,0,0:0:0:0:
189,372,66724,2,0,L|239:342,1,53.3333333333333,2|8,0:0|0:0,0:0:0:0:
417,234,67099,1,0,0:0:0:0:
417,234,67224,5,0,0:0:0:0:
396,209,67349,1,0,0:0:0:0:
372,187,67474,1,0,0:0:0:0:
344,170,67599,1,8,0:0:0:0:
314,156,67724,1,0,0:0:0:0:
283,147,67849,1,0,0:0:0:0:
251,145,67974,6,0,P|309:100|392:84,1,160,4|8,0:0|0:0,0:0:0:0:
322,324,68724,2,0,P|276:307|230:270,1,106.666666666667
182,200,69099,1,8,0:0:0:0:
216,32,69349,5,0,0:0:0:0:
178,108,69474,2,0,P|138:142|88:165,1,106.666666666667
216,32,69849,2,0,P|277:28|382:44,1,160,8|0,0:0|0:0,0:0:0:0:
491,167,70474,5,2,0:0:0:0:
428,225,70599,2,0,P|375:242|313:238,1,106.666666666667,8|0,0:0|0:0,0:0:0:0:
250,196,70974,1,0,0:0:0:0:
411,142,71224,1,2,0:0:0:0:
428,225,71349,2,0,B|441:278|422:331|422:331|392:329|372:312,1,160,8|0,0:0|0:0,0:0:0:0:
250,196,71974,5,0,0:0:0:0:
202,125,72099,2,0,B|186:98|190:70|190:70|242:57|292:73,1,160,8|0,0:0|0:0,0:0:0:0:
53,169,72849,2,0,P|41:114|50:66,1,106.666666666667,8|2,0:0|0:0,0:0:0:0:
117,118,73224,1,0,0:0:0:0:
133,157,73349,1,0,0:0:0:0:
129,199,73474,1,2,0:0:0:0:
112,238,73599,2,0,B|85:305|143:340|143:340|186:320,1,160,8|4,0:0|0:0,0:0:0:0:
396,185,74349,6,0,P|424:133|430:83,1,106.666666666667,8|0,0:0|0:0,0:0:0:0:
326,5,74724,2,0,P|324:60|342:110,1,106.666666666667,0|2,0:0|0:0,0:0:0:0:
487,165,75099,2,0,P|489:110|471:60,1,106.666666666667,8|0,0:0|0:0,0:0:0:0:
396,185,75474,2,0,P|424:222|474:253,1,106.666666666667
476,104,75849,2,0,P|450:55|409:21,1,106.666666666667,8|0,0:0|0:0,0:0:0:0:
300,144,76224,2,0,P|348:173|399:185,1,106.666666666667,0|2,0:0|0:0,0:0:0:0:
411,22,76599,1,8,0:0:0:0:
156,44,76974,6,0,B|76:66|26:131,1,160,0|8,0:0|0:0,0:0:0:0:
163,347,77724,2,0,P|190:300|198:247,1,106.666666666667,0|2,0:0|0:0,0:0:0:0:
193,162,78099,1,8,0:0:0:0:
388,327,78474,2,0,P|433:349|492:356,1,106.666666666667
468,273,78849,1,8,0:0:0:0:
293,85,79224,5,0,0:0:0:0:
251,73,79349,1,0,0:0:0:0:
208,71,79474,1,2,0:0:0:0:
165,76,79599,1,8,0:0:0:0:
127,97,79724,1,0,0:0:0:0:
94,124,79849,1,0,0:0:0:0:
71,160,79974,6,0,P|60:220|73:281,1,120.000004577637
256,328,80724,2,0,B|259:278|236:243|236:243|204:232,1,120.000004577637
390,289,81474,2,0,B|424:300|424:300|465:296|495:259,1,120.000004577637
468,68,82224,2,0,P|408:83|367:122,1,120.000004577637
323,207,82849,5,2,0:0:0:0:
274,150,82974,2,0,P|222:100|139:80,1,160,4|8,0:0|0:0,0:0:0:0:
87,298,83724,2,0,P|139:297|191:282,1,106.666666666667,0|2,0:0|0:0,0:0:0:0:
259,252,84099,1,8,0:0:0:0:
409,85,84474,5,0,0:0:0:0:
368,70,84599,1,0,0:0:0:0:
326,61,84724,1,0,0:0:0:0:
283,59,84849,1,0,0:0:0:0:
240,64,84974,1,0,0:0:0:0:
199,79,85099,1,0,0:0:0:0:
163,103,85224,1,0,0:0:0:0:
299,280,85599,1,6,0:0:0:0:
256,192,85724,12,2,86974,0:0:0:0:
