osu file format v9

[General]
AudioFilename: Kiss X Sis OVA Opening - Futari No Honey Boy HD1.mp3
AudioLeadIn: 1500
PreviewTime: -1
Countdown: 0
SampleSet: Soft
StackLeniency: 0.7
Mode: 0
LetterboxInBreaks: 1

[Editor]
DistanceSpacing: 0.8
BeatDivisor: 4
GridSize: 8

[Metadata]
Title:Futari no Honey Boy (TV Size)
Artist:Taketatsu Ayana & Tatsumi Yuiko
Creator:ToXIKoN
Version:Normal
Source:KissXsis
Tags:

[Difficulty]
HPDrainRate:6
CircleSize:4
OverallDifficulty:6
ApproachRate:6
SliderMultiplier:0.899999999999999
SliderTickRate:1

[Events]
//Background and Video events
Video,0,"Kiss X Sis OVA Opening - Futari No Honey Boy HD.avi"
0,0,"kissxsis-01.jpg"
//Break Periods
//Storyboard Layer 0 (Background)
//Storyboard Layer 1 (Fail)
//Storyboard Layer 2 (Pass)
//Storyboard Layer 3 (Foreground)
//Storyboard Sound Samples
//Background Colour Transformations
3,100,163,162,255

[TimingPoints]
241,425.531914893617,4,2,0,100,1,0
14818,-90.9090909090909,4,2,1,100,0,0
53698,-66.6666666666667,4,2,0,100,0,0
54443,-95.2380952380952,4,2,0,100,0,0
57155,-90.9090909090909,4,2,0,100,0,0
61517,-80,4,2,0,100,0,0

[Colours]
Combo1 : 255,128,64
Combo2 : 255,111,111
Combo3 : 182,255,108
Combo4 : 0,128,255

[HitObjects]
152,160,7049,1,0
256,88,7475,1,2
360,160,7900,1,0
360,88,8751,1,0
256,160,9177,1,2
152,88,9602,1,0
184,224,10453,6,0,B|256:280|312:216,2,135
152,160,12155,1,0
144,120,12368,1,8
136,80,12581,1,0
128,48,12794,1,8
48,48,13219,1,8
208,200,13858,5,8
248,200,14177,1,2
288,200,14496,1,8
176,160,15560,6,0,B|256:96|368:168,1,197.99999409914
336,216,17262,2,0,B|272:256|184:216,1,148.499995574355
240,144,18538,5,4
240,144,18751,1,8
240,144,18964,1,8
40,160,20666,5,0
88,120,21092,1,0
136,104,21517,1,0
168,104,21836,1,8
192,112,22155,2,8,B|352:200|432:160,1,247.499992623925
368,48,24070,5,0
360,96,24496,1,0
344,136,24921,1,0
328,152,25240,1,8
312,160,25560,2,8,B|208:200|168:112|264:80|280:136|256:192|152:192,1,247.499992623925
120,232,27474,5,0
176,208,27900,1,2
232,168,28325,1,0
256,152,28645,1,2
280,136,28964,2,8,B|416:200|512:112,1,247.499992623925
184,128,30878,5,8
312,240,31304,1,2
312,128,31729,1,8
184,240,32156,1,2
240,208,34283,6,2,B|288:232|288:232|336:232,2,98.9999970495701
216,200,35453,1,8
192,192,35772,2,8,B|112:168|112:168|120:160|160:120,1,148.499995574355
360,176,37687,6,2,B|312:200|312:200|256:176,3,98.9999970495701,2|2|2|8
272,184,39177,2,8,B|233:229|233:229|33:117,1,247.499992623925
184,136,41092,5,8
352,136,41517,1,8
336,216,41943,2,2,B|264:248|264:248|192:216,2,148.499995574355
168,64,44496,5,8
328,64,44921,1,8
128,176,45347,1,8
376,176,45772,1,8
192,288,46198,1,4
168,128,47900,6,0,B|176:72|224:48,2,98.9999970495701,8|0|8
168,128,49177,2,0,B|176:192|216:208,2,98.9999970495701,8|0|8
160,160,51304,1,8
256,64,51730,1,8
360,160,52155,1,8
160,232,52581,1,8
256,136,53006,1,8
360,232,53432,1,4
248,224,54070,6,0,B|288:200|296:176,1,67.4999979883432,8|2
256,136,54709,6,2,B|232:120|200:136,4,47.249999859184
256,136,55772,1,8
272,264,56198,5,2
272,264,56410,1,2
272,264,56623,1,2
272,264,56836,2,8,B|232:272|208:256,1,47.249999859184
160,192,58112,5,2
256,112,58538,1,2
344,192,58964,1,2
144,312,59815,5,8
360,312,60241,1,8
240,136,61517,6,0,B|288:56|360:40|416:88|416:152|376:224|296:304|248:336|248:336|192:304|120:224|96:152|96:88|184:40|232:56|296:120,1,899.999986588954
128,192,66623,1,2
152,232,66836,1,2
192,256,67049,1,2
240,264,67262,1,8
248,128,67687,1,8
176,160,68326,5,2
256,80,68752,1,2
336,160,69177,1,2
176,224,70028,1,2
256,304,70453,1,2
336,224,70879,1,2
144,160,71730,6,0,B|232:104|312:168,2,168.749997485429,0|0|8
144,160,73219,1,8
144,160,73432,1,8
96,56,75134,6,2,B|184:112|240:128|240:128|320:112,1,224.999996647239
304,120,76411,1,8
304,120,76836,2,2,B|248:200|200:224|200:224|168:232|168:232|104:232,1,224.999996647239
120,232,78113,1,8
120,232,78538,2,2,B|174:303|174:303|286:303,2,168.749997485429
88,168,80241,5,0
104,144,80454,1,0
120,120,80666,1,0
136,96,80879,1,0
216,96,81304,1,4
176,176,81943,5,2
176,176,82368,1,2
176,176,82794,2,0,B|240:216|304:168,2,112.499998323619,0|0|8
176,176,84070,2,0,B|160:112|224:80,2,112.499998323619,0|0|8
176,176,85347,2,0,B|104:176|72:216,2,112.499998323619,0|0|8
256,192,86411,12,0,88538
