osu file format v9

[General]
AudioFilename: Kiss X Sis OVA Opening - Futari No Honey Boy HD1.mp3
AudioLeadIn: 1500
PreviewTime: -1
Countdown: 0
SampleSet: Soft
StackLeniency: 0.7
Mode: 0
LetterboxInBreaks: 1

[Editor]
DistanceSpacing: 0.8
BeatDivisor: 4
GridSize: 8

[Metadata]
Title:Futari no Honey Boy (TV Size)
Artist:Taketatsu Ayana & Tatsumi Yuiko
Creator:ToXIKoN
Version:Hard
Source:KissXsis
Tags:

[Difficulty]
HPDrainRate:6
CircleSize:4
OverallDifficulty:6
ApproachRate:7
SliderMultiplier:0.999999999999999
SliderTickRate:1

[Events]
//Background and Video events
Video,0,"Kiss X Sis OVA Opening - Futari No Honey Boy HD.avi"
0,0,"PART22933772347fb5a095c4e9f90ed7bc2bb53a119.jpg"
//Break Periods
//Storyboard Layer 0 (Background)
//Storyboard Layer 1 (Fail)
//Storyboard Layer 2 (Pass)
//Storyboard Layer 3 (Foreground)
//Storyboard Sound Samples
//Background Colour Transformations
3,100,163,162,255

[TimingPoints]
241,425.531914893617,4,2,0,100,1,0
9389,-74.0740740740741,4,2,0,100,0,0
10028,-76.9230769230769,4,2,0,100,0,0
57794,-66.6666666666667,4,2,0,100,0,0
71541,-55.5555555555556,4,2,0,100,0,0
74070,-66.6666666666667,4,2,0,100,0,0
80560,-58.8235294117647,4,2,0,100,0,0
80985,-52.6315789473684,4,2,0,100,0,0
81836,-66.6666666666667,4,2,0,100,0,0

[Colours]
Combo1 : 255,128,64
Combo2 : 255,111,111
Combo3 : 182,255,108
Combo4 : 0,128,255

[HitObjects]
88,120,6198,1,2
112,160,6411,1,2
136,192,6623,1,2
176,216,6836,1,2
216,232,7049,2,2,B|264:216|320:232,1,99.9999999999999,2|8
360,184,7900,2,2,B|344:128|384:80,1,99.9999999999999,2|8
128,240,8751,5,0
184,112,9177,1,0
320,112,9602,2,8,B|352:168|352:168|384:256,1,135.000004425645,2|8
160,288,10453,6,0,B|248:336|352:280,2,194.999996513128
304,224,12155,1,0
200,224,12368,1,0
336,120,12581,1,0
176,120,12794,1,0
64,40,13219,1,4
96,104,13858,5,0
96,104,14177,1,2
96,104,14496,2,8,B|112:176|112:176|176:208|264:120,1,194.999996513128
376,208,15560,1,0
376,208,15879,1,2
376,208,16199,2,8,B|352:264|352:264|272:272|232:216,1,194.999996513128
96,72,17262,5,2
256,280,17687,1,2
392,72,18113,1,2
256,192,18538,12,0,19815
256,160,20028,6,8,B|256:192,2,32.4999994188547
152,48,20666,5,0
256,152,21091,1,0
104,264,21517,1,0
256,152,21943,1,8
256,152,22155,2,2,B|288:240|288:240|208:288|112:256|112:256|8:208|56:136,1,324.999994188547,8|2
56,40,24070,5,0
144,296,24496,1,0
208,56,24921,1,0
304,336,25347,1,0
176,120,25772,1,8
176,160,25985,1,2
176,200,26198,1,8
272,184,26623,1,8
272,144,26836,1,2
272,104,27049,1,8
80,120,27475,6,0,B|136:80|208:144,1,129.999997675419
200,136,28326,2,0,B|251:107|328:152,1,129.999997675419
320,152,28964,2,8,B|432:216|416:336,2,194.999996513128
320,152,30453,1,8
248,168,30879,6,0,B|128:232,1,129.999997675419,0|8
136,232,31517,1,8
248,168,31730,2,0,B|248:320,1,129.999997675419,0|8
248,304,32368,1,8
136,96,33219,6,8,B|200:96,3,64.9999988377094,8|8|8|4
208,96,34283,2,2,B|208:224,1,129.999997675419,2|8
304,136,35134,2,2,B|304:272,1,129.999997675419,2|8
400,176,35985,2,2,B|400:312,1,129.999997675419,2|10
256,144,36623,6,0,B|256:208,2,64.9999988377094,0|0|8
256,144,37262,1,8
112,72,37687,5,0
112,224,38113,1,0
240,72,38538,1,0
240,224,38964,1,0
384,96,39389,1,8
384,120,39602,1,8
384,144,39815,1,8
272,120,40241,1,8
272,144,40453,1,8
272,168,40666,1,8
120,80,41092,5,0
112,200,41517,1,0
280,80,41943,1,0
304,112,42155,1,0
312,144,42368,1,0
312,184,42581,1,0
304,216,42794,1,0
288,240,43006,1,0
264,256,43220,1,0
240,264,43433,1,0
208,264,43645,1,0
184,256,43858,1,0
160,240,44071,1,8
80,72,44496,5,8
80,296,44921,1,2
416,72,45347,1,8
416,296,45772,1,2
256,192,46198,12,0,47049
192,240,47900,5,2
232,240,48113,1,2
264,240,48326,1,2
320,144,48751,1,2
288,144,48964,1,2
256,144,49177,1,2
360,104,49602,1,8
360,272,50028,1,8
256,192,50241,12,0,50879
152,80,51304,6,0,B|152:144,2,64.9999988377094
248,128,52155,2,0,B|248:192,2,64.9999988377094
248,192,53006,6,0,B|182:192|182:192|128:144,1,129.999997675419
248,192,53645,2,0,B|248:280,1,64.9999988377094,0|8
248,192,54070,2,0,B|312:136,1,64.9999988377094,0|8
136,48,54709,5,0
104,80,54922,1,0
96,120,55135,1,0
104,168,55348,1,0
120,200,55560,1,0
152,224,55773,1,0
376,48,56198,5,0
408,80,56411,1,0
416,120,56624,1,0
408,168,56837,1,8
392,200,57049,1,8
104,192,57687,6,0,B|144:128,1,64.9999988377094
136,137,58113,2,0,B|192:184,1,74.9999977648258
193,185,58538,2,0,B|288:152,1,74.9999977648258
264,160,58964,2,0,B|280:72,1,74.9999977648258
256,192,59389,12,0,60240
96,56,60666,5,0
96,144,61092,1,0
256,64,61517,1,0
280,104,61730,1,0
264,152,61943,1,0
128,168,62368,1,0
104,216,62581,1,0
128,264,62794,1,0
336,136,63219,1,0
352,168,63432,1,0
360,208,63644,1,0
352,248,63857,1,0
320,280,64070,1,8
280,288,64283,1,8
240,264,64495,1,8
136,56,64921,6,0,B|112:136,2,74.9999977648258
136,56,65772,6,0,B|208:72,2,74.9999977648258
336,80,66623,1,2
352,168,66836,1,2
288,240,67049,1,2
184,208,67261,1,2
168,64,67687,1,4
128,88,68325,5,0
104,128,68538,1,0
128,168,68751,1,0
248,168,69177,1,0
264,208,69389,1,0
248,248,69602,1,8
392,96,70028,1,0
408,136,70241,1,0
408,184,70453,1,0
392,224,70666,1,0
304,256,71092,1,8
264,264,71304,1,8
112,160,71730,6,0,B|152:88|152:88|224:88|264:176,2,179.999991416931
112,160,73006,2,0,B|128:224|200:280|312:312|312:312|424:240,1,359.999982833863
168,120,74283,5,0
256,48,74495,1,0
344,120,74708,1,0
168,200,75134,6,0,B|168:280,2,74.9999977648258
240,264,75985,2,0,B|240:160,2,74.9999977648258
304,200,76836,2,0,B|304:280,2,74.9999977648258
168,200,77687,1,8
240,264,77900,1,8
304,200,78113,1,8
136,192,78538,5,0
256,56,78964,1,0
376,192,79389,1,0
256,232,79815,1,0
248,144,80241,6,0,B|160:192,1,74.9999977648258
248,144,80666,2,0,B|232:248,1,84.9999964535237
248,144,81092,2,0,B|344:224,1,94.9999966025353
248,144,81517,1,0
248,144,81730,1,0
208,112,81943,5,0
168,96,82368,1,0
80,168,82794,1,0
80,216,83006,1,0
96,256,83219,1,0
200,272,83645,1,0
288,240,84070,1,0
312,72,84496,1,8
344,112,84709,1,8
352,160,84921,1,8
160,88,85347,5,2
200,72,85560,1,2
248,80,85772,1,2
160,240,86198,1,0
328,240,86623,1,0
256,192,86836,12,0,87900
