osu file format v9

[General]
AudioFilename: Ever17Karma.mp3
AudioLeadIn: 2504
PreviewTime: 76210
Countdown: 0
SampleSet: Soft
StackLeniency: 0.7
Mode: 0
LetterboxInBreaks: 1

[Editor]
Bookmarks: 61294
DistanceSpacing: 1
BeatDivisor: 8
GridSize: 8

[Metadata]
Title:Karma
Artist:Takeshi Abo
Creator:Magicphoenix
Version:Sara
Source:Ever17: The Out of Infinity
Tags:kid galge soundtrack visual novel

[Difficulty]
HPDrainRate:3
CircleSize:4
OverallDifficulty:4
ApproachRate:2
SliderMultiplier:1.5
SliderTickRate:1

[Events]
//Background and Video events
0,0,"evsa05a2vc5.jpg"
//Break Periods
//Storyboard Layer 0 (Background)
//Storyboard Layer 1 (Fail)
//Storyboard Layer 2 (Pass)
//Storyboard Layer 3 (Foreground)
//Storyboard Sound Samples
//Background Colour Transformations
3,100,163,162,255

[TimingPoints]
523,779.220779220779,4,2,1,43,1,0
719,-100,4,2,1,51,0,0
1888,-100,4,2,1,65,0,0
2278,-100,4,2,1,32,0,0
3447,-100,4,2,1,67,0,0
4031,-100,4,2,1,52,0,0
5005,-100,4,2,1,66,0,0
5395,-100,4,2,1,52,0,0
6953,-100,4,2,1,47,0,0
7732,-100,4,2,1,57,0,0
9680,-100,4,2,1,68,0,0
10265,-100,4,2,1,52,0,0
11239,-100,4,2,1,77,0,0
12457,-100,4,2,1,53,0,0
14356,-100,4,2,1,66,0,0
14745,-100,4,2,1,51,0,0
15914,-100,4,2,1,66,0,0
16499,-100,4,2,1,53,0,0
17473,-100,4,2,1,75,0,0
18057,-100,4,2,1,60,0,0
18641,-100,4,2,1,51,0,0
19031,-100,4,2,1,74,0,0
20005,-100,4,2,1,52,0,0
20589,-100,4,2,1,41,0,0
21174,-100,4,2,1,34,0,0
22148,-100,4,2,1,43,0,0
22537,-100,4,2,1,49,0,0
22927,-100,4,2,1,57,0,0
23317,-100,4,2,1,65,0,0
25265,-100,4,2,1,84,0,0
25654,-100,4,2,1,67,0,0
26434,-100,4,2,1,54,0,0
26823,-100,4,2,1,67,0,0
27992,-100,4,2,1,55,0,0
28382,-100,4,2,1,66,0,0
31109,-100,4,2,1,52,0,0
31888,-100,4,2,1,57,0,0
32667,-100,4,2,1,63,0,0
33447,-100,4,2,1,69,0,0
33836,-100,4,2,1,62,0,0
34615,-100,4,2,1,56,0,0
36174,-100,4,2,1,81,0,0
37098,-100,4,2,1,62,0,0
38122,-100,4,2,1,52,0,0
38901,-100,4,2,1,65,0,0
39680,-100,4,2,1,56,0,0
40460,-100,4,2,1,69,0,0
40849,-100,4,2,1,57,0,0
44356,-100,4,2,1,53,0,0
44745,-100,4,2,1,53,0,0
45524,-100,4,2,1,41,0,0
47083,-100,4,2,1,54,0,0
48641,-100,4,2,1,48,0,0
49810,-100,4,2,1,59,0,0
50200,-100,4,2,1,73,0,0
51369,-100,4,2,1,56,0,0
51758,-100,4,2,1,63,0,0
53706,-100,4,2,1,24,0,0
54486,-100,4,2,1,34,0,0
54875,-100,4,2,1,44,0,0
56044,-100,4,2,1,53,0,0
56434,-100,4,2,1,60,0,0
57992,-100,4,2,1,71,0,0
58382,-100,4,2,1,61,0,0
60135,-100,4,2,1,52,0,0
61109,-100,4,2,1,65,0,0
61499,-100,4,2,1,58,0,0
61888,-100,4,2,1,68,0,0
62278,-100,4,2,1,58,0,0
62667,-100,4,2,1,75,0,0
63252,-100,4,2,1,62,0,0
64226,-100,4,2,1,77,0,0
64615,-100,4,2,1,62,0,0
65973,785.340314136126,4,2,1,67,1,0
66351,-100,4,2,1,54,0,0
69100,779.220779220779,4,2,1,67,1,0
69294,-100,4,2,1,54,0,0
70463,-100,4,2,1,70,0,0
72216,857.142857142857,4,2,1,81,1,0
73070,923.076923076923,4,2,1,49,1,0
76214,779.220779220779,4,2,1,66,1,1
76404,-100,4,2,1,53,0,0
77184,-100,4,2,1,67,0,0
77573,-100,4,2,1,76,0,0
77963,-100,4,2,1,63,0,0
79132,-100,4,2,1,79,0,0
79911,-100,4,2,1,65,0,0
80690,-100,4,2,1,81,0,0
81274,-100,4,2,1,66,0,0
81859,-100,4,2,1,51,0,0
82248,-100,4,2,1,59,0,0
83807,-100,4,2,1,69,0,0
84586,-100,4,2,1,61,0,0
85365,-100,4,2,1,77,0,0
86145,-100,4,2,1,55,0,0
87703,-100,4,2,1,48,0,0
88482,-100,4,2,1,66,0,0
89651,-100,4,2,1,55,0,0
90041,-100,4,2,1,68,0,0
91599,-100,4,2,1,86,0,0
91989,-100,4,2,1,73,0,0
93742,-100,4,2,1,49,0,0
95106,-100,4,2,1,49,0,0
96274,-100,4,2,1,38,0,0
97833,-100,4,2,1,30,0,0
98222,-100,4,2,1,15,0,0
101729,-100,4,2,1,22,0,0
102119,-100,4,2,1,38,0,0
102508,-100,4,2,1,42,0,0
103677,-100,4,2,1,50,0,0
104067,-100,4,2,1,42,0,0
104846,-100,4,2,1,34,0,0
105625,-100,4,2,1,43,0,0
107184,-100,4,2,1,57,0,0
107963,-100,4,2,1,46,0,0
108352,-100,4,2,1,38,0,0
108742,-100,4,2,1,59,0,0
110300,-100,4,2,1,72,0,0
111859,-100,4,2,1,85,0,0
112443,-100,4,2,1,63,0,0
114586,-100,4,2,1,52,0,0
116924,-100,4,2,1,41,0,0
118093,-100,4,2,1,58,0,0
118482,-100,4,2,1,40,0,0
120041,-100,4,2,1,34,0,0
120820,-100,4,2,1,29,0,0
121444,895.522388059701,4,2,1,32,1,0
121444,-200,4,2,1,32,0,0
123195,937.5,4,2,1,30,1,0
123663,-100,4,2,1,25,0,0
124132,1111.11111111111,4,2,1,20,1,0
124687,-100,4,2,1,15,0,0
125266,1111.11111111111,4,2,1,10,1,0
125543,-100,4,2,1,0,0,0

[Colours]
Combo1 : 255,150,0
Combo2 : 78,79,62
Combo3 : 243,201,33
Combo4 : 0,64,128
Combo5 : 80,220,112

[HitObjects]
192,96,523,1,4
244,148,912,1,0
190,201,1302,1,0
190,275,1691,2,0,B|291:276,1,75,0|4
334,245,2471,5,0
375,182,2860,1,0
353,110,3250,1,2
287,74,3639,2,0,B|191:50|130:116,1,150,0|0
181,167,4808,1,0
217,232,5198,2,0,B|121:256|60:190,1,150,4|0
75,204,6367,1,0
98,133,6756,6,0,B|192:102,1,75,2|0
244,109,7535,2,0,B|339:142,1,75,0|0
351,199,8315,2,0,B|338:286|214:300,1,150,4|0
248,294,9484,1,0
248,219,9873,2,0,B|248:65,1,150,2|2
248,69,11432,1,4
55,143,12990,6,0,B|84:235|181:216,1,150,2|0
221,164,14159,1,0
273,111,14548,1,2
348,111,14938,1,0
401,164,15328,1,0
360,226,15717,2,0,B|299:257|268:251|268:251|268:251,1,75,0|2
154,185,16886,5,0
260,78,17665,1,4
366,184,18445,1,0
313,236,18834,5,0
258,284,19224,2,0,B|191:241|189:142|269:86,1,225,4|0
260,92,20782,1,0
410,92,21561,1,2
303,198,22341,5,2
235,230,22730,1,0
165,258,23120,1,0
96,288,23510,2,0,B|80:231|99:194,1,75,0|2
160,185,24289,2,0,B|179:139|157:91,1,75,0|0
89,111,25068,2,0,B|73:52|97:18,1,75,0|2
160,20,25847,5,0
232,31,26237,2,0,B|276:60|275:123,1,75,0|2
197,95,27016,2,0,B|203:163|272:192|335:152,1,150,2|0
376,141,28185,1,2
391,217,28574,2,0,B|345:293|236:270,1,150,2|0
120,224,30133,1,4
226,117,30912,1,0
301,117,31302,5,0
375,117,31691,2,0,B|377:201,1,75,2|0
376,267,32471,2,0,B|336:309|277:276,1,75,0|0
235,269,33250,2,0,B|171:199,1,75,2|0
206,141,34029,1,0
277,162,34419,2,0,B|316:204|375:171,1,75,2|2
345,184,35587,1,0
344,184,36367,1,4
374,57,37925,6,0,B|286:94,1,75,2|0
340,152,38704,2,0,B|252:189,1,75,0|0
309,245,39484,2,0,B|239:274,1,75,2|0
168,251,40263,1,0
190,179,40652,1,0
243,125,41042,5,2
381,68,41821,2,0,B|449:139|391:237,1,150,0|2
293,206,43185,1,0
180,206,43769,1,0
104,206,44159,6,0,B|104:128,2,75,2|0|0
104,262,45230,2,0,B|209:262,1,93.75,0|2
360,206,46497,6,0,B|402:117|356:44,1,150,0|4
297,29,47665,2,0,B|249:6|210:48,1,75
245,106,48445,2,0,B|263:185,1,75,0|2
290,248,49224,1,0
318,317,49613,1,0
250,348,50003,5,0
182,315,50393,2,0,B|98:247|94:180,1,150,4|0
148,142,51561,1,0
201,88,51951,2,0,B|277:135|286:206,1,150,4|0
286,281,53120,1,0
286,318,53315,1,0
185,302,53899,6,0,B|132:318|90:283,3,75,0|2|0|2
111,147,55847,1,0
186,147,56237,5,0
260,147,56626,2,0,B|350:139|422:194|443:289,1,225,2|0
381,313,58185,2,0,B|292:312,1,75,2|0
268,312,58769,1,0
268,162,59354,1,0
230,162,59548,2,0,B|157:140|85:212|99:269,1,187.5,2|0
97,257,60912,5,0
167,284,61302,1,2
241,284,61691,1,0
313,265,62081,2,0,B|376:242|389:203,1,75,0|0
416,162,62860,6,0,B|416:8,1,150,2|0
340,12,64029,1,0
264,12,64419,2,0,B|226:97|264:163,1,150,2|0
260,231,65587,1,0
260,231,65782,1,0
260,231,65973,1,4
110,231,66758,6,0,B|111:160,2,50,0|0|0
110,281,67543,1,4
260,269,68329,1,0
334,269,68721,5,0
387,215,69100,2,0,B|392:116|359:57,2,150
158,192,71437,2,0,B|211:257|300:245,1,150,0|4
415,183,73070,2,0,B|414:31,1,150,0|4
168,72,76214,6,0,B|144:136|176:168,1,75,4|0
236,145,76993,2,0,B|296:197,1,75,0|0
345,247,77772,2,0,B|259:306,1,75,4|0
208,289,78551,2,0,B|174:246|186:202,1,75,0|0
217,153,79330,2,0,B|276:77|374:71,1,150,4|0
447,181,80889,2,0,B|389:255|323:257,1,150,4|0
248,257,82058,1,0
173,257,82447,6,0,B|174:90,1,150,4|0
248,107,83616,1,0
323,107,84006,2,0,B|403:107,2,75,4|0|0
323,182,85175,1,2
323,256,85564,2,0,B|239:289|155:242,1,150,4|0
177,102,87123,2,0,B|177:17,2,75,2|0|4
312,168,88681,6,0,B|317:235|279:264,2,75,2|0|4
388,164,89850,1,0
462,164,90239,2,0,B|457:97|495:68,2,75,2|0|4
462,239,91408,1,0
462,314,91798,2,0,B|419:312|371:272|399:202,1,150,2|0
277,105,93356,5,4
197,184,93941,2,0,B|197:304,1,112.5,0|2
197,296,94915,1,4
384,277,95694,5,0
384,220,95986,1,0
341,136,96473,1,2
209,64,97252,2,0,B|170:142|220:218,1,150,0|4
256,192,98226,12,4,101149
294,115,101928,6,0,B|255:79|203:133,2,75,2|0|2
294,264,103486,2,0,B|258:295|228:263,2,75,2|0|2
425,191,105045,1,0
275,191,105824,5,4
162,191,106408,1,0
162,303,106993,1,0
236,303,107382,6,0,B|317:303,2,75,2|0|0
160,303,108551,1,0
121,238,108941,5,2
121,163,109330,2,0,B|122:74,1,75
175,34,110110,1,0
198,105,110499,2,0,B|193:206|285:247,1,150,4|0
409,233,112058,2,0,B|409:67,1,150,4|0
265,126,113616,6,0,B|247:181|204:199,2,75,2|0|0
266,126,114785,2,0,B|248:72|225:65,2,75,0|2|0
265,126,115954,2,0,B|320:108|338:65,2,75,2|0|0
265,126,117123,2,0,B|210:144|192:187,1,75,0|2
150,219,117902,1,0
150,219,118291,2,0,B|186:302|277:304,1,150,6|0
330,268,119460,5,0
383,214,119850,2,0,B|338:184|281:212,1,75
249,243,120629,2,0,B|219:198|247:141,1,75
233,93,121444,2,0,B|251:56|285:40,1,75
444,170,123195,5,0
364,212,123663,1,0
268,200,124132,1,0
181,146,124687,1,0
138,49,125266,1,4
256,192,125543,12,0,128599
