osu file format v9

[General]
AudioFilename: Ever17Karma.mp3
AudioLeadIn: 2504
PreviewTime: 76210
Countdown: 0
SampleSet: Soft
StackLeniency: 0.7
Mode: 0
LetterboxInBreaks: 1

[Editor]
DistanceSpacing: 0.9
BeatDivisor: 4
GridSize: 8

[Metadata]
Title:Karma
Artist:Takeshi Abo
Creator:Magicphoenix
Version:Coco
Source:Ever17: The Out of Infinity
Tags:kid galge soundtrack visual novel

[Difficulty]
HPDrainRate:2
CircleSize:3
OverallDifficulty:2
ApproachRate:1
SliderMultiplier:1.3
SliderTickRate:1

[Events]
//Background and Video events
0,0,"Konachan.com - 4207 ever17 tagme yagami_coco.jpg"
//Break Periods
//Storyboard Layer 0 (Background)
//Storyboard Layer 1 (Fail)
//Storyboard Layer 2 (Pass)
//Storyboard Layer 3 (Foreground)
//Storyboard Sound Samples
//Background Colour Transformations
3,100,163,162,255

[TimingPoints]
523,779.220779220779,4,2,1,64,1,0
1089,-100,4,2,1,45,0,0
1479,-100,4,2,1,56,0,0
1868,-100,4,2,1,62,0,0
3037,-100,4,2,1,52,0,0
3427,-100,4,2,1,67,0,0
4985,-100,4,2,1,77,0,0
5569,-100,4,2,1,53,0,0
9660,-100,4,2,1,66,0,0
11219,-100,4,2,1,75,0,0
12777,-100,4,2,1,55,0,0
13946,-100,4,2,1,66,0,0
14336,-100,4,2,1,57,0,0
17258,-100,4,2,1,37,0,0
18037,-100,4,2,1,29,0,0
19011,-100,4,2,1,59,0,0
20375,-100,4,2,1,47,0,0
21933,-100,4,2,1,67,0,0
25050,-100,4,2,1,59,0,0
25634,-100,4,2,1,45,0,0
26024,-100,4,2,1,53,0,0
26414,-100,4,2,1,61,0,0
26803,-100,4,2,1,68,0,0
27972,-100,4,2,1,57,0,0
28362,-100,4,2,1,67,0,0
29725,-100,4,2,1,57,0,0
30505,-100,4,2,1,42,0,0
31479,-100,4,2,1,58,0,0
33037,-100,4,2,1,71,0,0
34595,-100,4,2,1,78,0,0
35959,-100,4,2,1,55,0,0
36738,-100,4,2,1,76,0,0
37517,-100,4,2,1,58,0,0
38102,-100,4,2,1,49,0,0
38881,-100,4,2,1,43,0,0
39271,-100,4,2,1,61,0,0
40050,-100,4,2,1,57,0,0
40829,-100,4,2,1,68,0,0
42388,-100,4,2,1,59,0,0
42982,-100,4,2,1,52,0,0
43751,-100,4,2,1,38,0,0
45504,-100,4,2,1,31,0,0
46284,-100,4,2,1,37,0,0
49790,-100,4,2,1,60,0,0
50180,-100,4,2,1,76,0,0
50959,-100,4,2,1,42,0,0
51738,-100,4,2,1,57,0,0
54076,-100,4,2,1,40,0,0
54855,-100,4,2,1,75,0,0
56024,-100,4,2,1,44,0,0
56414,-100,4,2,1,53,0,0
57582,-100,4,2,1,55,0,0
57972,-100,4,2,1,60,0,0
59141,-100,4,2,1,50,0,0
59530,-100,4,2,1,72,0,0
62258,-100,4,2,1,53,0,0
62647,-100,4,2,1,68,0,0
64206,-100,4,2,1,50,0,0
64985,-100,4,2,1,65,0,0
65973,785.340314136126,4,2,1,82,1,0
66351,-100,4,2,1,56,0,0
69100,779.220779220779,4,2,1,81,1,0
69489,-100,4,2,1,56,0,0
70268,-100,4,2,1,65,0,0
71048,-100,4,2,1,75,0,0
72216,857.142857142857,4,2,1,87,1,0
73070,923.076923076923,4,2,1,41,1,0
76214,779.220779220779,4,2,1,58,1,1
76404,-100,4,2,1,58,0,0
77184,-100,4,2,1,52,0,0
77573,-100,4,2,1,66,0,0
78742,-100,4,2,1,55,0,0
79132,-100,4,2,1,75,0,0
81859,-100,4,2,1,59,0,0
83028,-100,4,2,1,50,0,0
83417,-100,4,2,1,68,0,0
85365,-100,4,2,1,81,0,0
86924,-100,4,2,1,91,0,0
89261,-100,4,2,1,65,0,0
89651,-100,4,2,1,75,0,0
90041,-100,4,2,1,84,0,0
91599,-100,4,2,1,72,0,0
92184,-100,4,2,1,59,0,0
92963,-100,4,2,1,51,0,0
94716,-100,4,2,1,43,0,0
96080,-100,4,2,1,32,0,0
100950,-100,4,2,1,59,0,0
101534,-100,4,2,1,48,0,0
103093,-100,4,2,1,39,0,0
104651,-100,4,2,1,29,0,0
107963,-100,4,2,1,45,0,0
108742,-100,4,2,1,36,0,0
109911,-100,4,2,1,48,0,0
110885,-100,4,2,1,37,0,0
112638,-100,4,2,1,25,0,0
113417,-100,4,2,1,34,0,0
113807,-100,4,2,1,29,0,0
114586,-100,4,2,1,37,0,0
114976,-100,4,2,1,34,0,0
116534,-100,4,2,1,42,0,0
117313,-100,4,2,1,32,0,0
118093,-100,4,2,1,46,0,0
118677,-100,4,2,1,35,0,0
119651,-100,4,2,1,46,0,0
120041,-100,4,2,1,29,0,0
121444,895.522388059701,4,2,1,29,1,0
123195,937.5,4,2,1,19,1,0
124132,1111.11111111111,4,2,1,9,1,0
125266,1111.11111111111,4,2,1,0,1,0

[Colours]
Combo1 : 250,169,250
Combo2 : 255,128,128
Combo3 : 227,189,55
Combo4 : 220,122,24

[HitObjects]
232,264,523,1,4
174,158,1302,1,2
141,101,1691,1,0
109,45,2081,2,0,B|167:5|239:47,1,130,2|0
262,100,3250,1,0
291,158,3639,2,0,B|349:198|421:156,1,130,2|0
413,159,5198,1,4
413,159,5977,1,0
331,258,6756,6,0,B|200:301,1,130,2|0
96,295,8315,2,0,B|105:181|249:251|288:133,1,260,2|0
356,33,10652,1,0
415,137,11432,2,0,B|471:198|454:318|349:344,1,260,4|2
323,226,13769,5,0
271,253,14159,1,0
215,280,14548,1,2
98,221,15328,2,0,B|170:206|183:133,1,130,0|2
274,42,16886,2,0,B|428:115,1,130,0|2
429,222,18445,1,0
299,222,19224,6,0,B|262:306|126:306|82:219,1,260,4|2
194,171,21561,2,0,B|194:5,1,130,0|4
360,79,25458,5,2
326,127,25847,1,0
277,159,26237,1,0
220,175,26626,1,2
173,143,27016,2,0,B|131:87|32:89,1,130
57,153,28185,1,2
73,212,28574,2,0,B|99:287|234:340|309:272,1,260,0|2
293,284,30912,1,4
358,207,31691,6,0,B|433:159|415:69|313:30,1,195,2|0
285,48,33250,2,0,B|92:48,1,195,2|0
62,107,34808,2,0,B|22:186|26:272|151:308,1,260,2|2
179,180,37146,1,4
293,97,37925,5,2
356,109,38315,1,0
409,122,38704,2,0,B|409:203,1,65,0|0
378,234,39484,6,0,B|319:277|252:219,1,130,2|0
208,192,40652,1,0
177,148,41042,2,0,B|120:96|58:144,1,130,2|0
67,263,42600,2,0,B|214:263,1,130,4|0
255,263,43769,1,0
307,263,44159,5,4
389,180,44938,1,0
389,63,45717,1,2
253,37,46497,1,2
123,37,47276,2,0,B|130:170|234:214|313:194,1,260,4|2
394,80,50003,5,0
394,80,50393,1,4
287,135,51172,1,2
184,197,51951,1,2
133,229,52341,1,0
82,261,52730,2,0,B|133:333|270:337|318:244,1,260,2|0
365,143,55068,1,4
186,65,56237,5,0
186,129,56626,2,0,B|187:221|290:242,1,130,2|0
317,230,57795,1,0
382,230,58185,2,0,B|381:322|278:343,1,130,2|0
250,331,59354,1,0
185,331,59743,2,0,B|126:249|142:129|191:61,1,260,4|0
307,83,62081,1,0
307,148,62471,5,0
307,212,62860,2,0,B|273:291|132:321|40:246,1,260,4|0
170,178,65198,1,2
217,57,65973,5,4
346,57,66758,2,0,B|463:137|408:294|306:354|176:254,1,390,2|4
253,157,69879,5,0
143,86,70658,1,2
115,212,71437,1,0
221,262,72216,2,0,B|290:309|373:249,1,130,4|0
256,192,73993,12,4,76214
248,120,76993,5,2
312,120,77382,1,0
377,120,77772,2,0,B|379:199|309:246,1,130,4|0
266,231,78941,1,2
204,251,79330,2,0,B|144:298|69:243,1,130,4|0
83,122,80889,2,0,B|143:75|218:130,1,130,4|0
238,175,82058,5,2
273,229,82447,2,0,B|352:227|383:140,1,130,4|2
374,95,83616,1,2
327,48,84006,2,0,B|256:7|172:60,1,130,4|0
152,80,85175,1,2
117,127,85564,2,0,B|76:198|129:282,1,130,4|0
224,317,87123,2,4,B|358:250|336:101,1,260,4|4
210,73,89460,5,2
163,119,89850,1,0
116,163,90239,2,0,B|91:264|229:261,1,130,4|0
241,257,91408,1,2
306,257,91798,5,4
306,127,92577,1,2
398,215,93356,2,0,B|453:165|451:83|380:30,1,195,4|2
330,52,94915,5,4
238,143,95694,2,0,B|216:227|117:209,1,130,4|0
12,211,97252,2,0,B|67:331|195:326|272:277,1,260,2|0
342,232,99590,1,4
342,232,100369,1,0
288,113,101149,6,0,B|226:58|164:115,1,130,2|0
170,238,102707,2,0,B|232:293|293:235,1,130,2|0
397,171,104265,2,0,B|249:171,1,130,2|0
143,129,105824,1,2
264,264,106993,1,0
262,201,107382,6,0,B|262:65,1,130,2|0
327,72,108551,1,0
392,72,108941,2,0,B|393:217,1,130,2|0
327,201,110110,1,0
281,246,110499,6,0,B|252:336|136:290,1,130,2|0
133,257,111668,1,0
86,210,112058,1,2
177,118,112837,1,4
306,118,113616,5,2
306,183,114006,1,0
306,247,114395,1,2
240,247,114785,1,0
174,247,115175,2,0,B|174:114,1,130,2|0
174,52,116343,1,0
239,52,116733,2,0,B|324:51|351:131,1,130,2|2
344,243,118291,2,0,B|255:284|184:228,1,130,4|0
218,183,119460,5,0
161,151,119850,2,0,B|88:263,1,130,2|0
169,339,121444,1,0
283,276,122339,1,2
348,171,123195,1,0
379,54,124132,1,0
256,192,125266,12,0,128599
