osu file format v9

[General]
AudioFilename: 3. New Departure.mp3
AudioLeadIn: 2007
PreviewTime: 44616
Countdown: 1
SampleSet: Soft
StackLeniency: 0.7
Mode: 0
LetterboxInBreaks: 1

[Editor]
DistanceSpacing: 1
BeatDivisor: 4
GridSize: 8

[Metadata]
Title:New Departure
Artist:Takenobu Mitsuyoshi
Creator:Real1
Version:Hong Kong
Source:Shenmue
Tags:dreamcast epic yu suzuki

[Difficulty]
HPDrainRate:6
CircleSize:4
OverallDifficulty:4
ApproachRate:4
SliderMultiplier:1.2
SliderTickRate:0.5

[Events]
//Background and Video events
0,0,"Shenmue-W49-1-1.jpg"
//Break Periods
//Storyboard Layer 0 (Background)
//Storyboard Layer 1 (Fail)
//Storyboard Layer 2 (Pass)
//Storyboard Layer 3 (Foreground)
//Storyboard Sound Samples
//Background Colour Transformations
3,100,102,102,102

[TimingPoints]
765,461.538461538462,4,2,0,20,1,0
7923,-100,4,1,0,32,0,0
8270,-100,4,2,0,21,0,0
15308,-100,4,1,0,29,0,0
15596,-100,4,2,0,31,0,0
17270,-100,4,2,0,0,0,0
17500,-100,4,2,0,29,0,0
20731,-100,4,2,0,0,0,0
21308,-100,4,2,0,31,0,0
22808,-100,4,1,0,31,0,0
22981,-100,4,2,0,31,0,0
24712,-100,4,2,0,0,0,0
24885,-100,4,2,0,20,0,0
28346,-100,4,2,0,0,0,0
28577,-100,4,2,0,28,0,0
30193,-100,4,1,0,28,0,0
30366,-100,4,2,0,28,0,0
32039,-100,4,2,0,0,0,0
32270,-100,4,2,0,29,0,0
35731,-100,4,2,0,0,0,0
35962,-100,4,2,0,32,0,0
37577,-100,4,1,0,32,0,0
37808,-100,4,2,0,32,0,0
39423,-100,4,2,0,0,0,0
39654,-100,4,2,0,32,0,0
41270,-100,4,2,0,0,0,0
44385,-100,4,1,0,23,0,0
45770,-100,4,2,0,45,0,0
46808,-100,4,1,0,32,0,0
47154,-100,4,2,0,33,0,0
50500,-100,4,1,0,33,0,0
50731,-100,4,2,0,33,0,0
54193,-100,4,1,0,33,0,0
54423,-100,4,2,0,33,0,0
56385,-100,4,2,0,37,0,0
57885,-100,4,1,0,31,0,0
58116,-100,4,2,0,31,0,0
61577,-100,4,1,0,31,0,0
61808,-100,4,2,0,31,0,0
65270,-100,4,1,0,31,0,0
65616,-100,4,2,0,31,0,0
68846,-100,4,1,0,31,0,0
69193,-100,4,2,0,31,0,0
72654,-100,4,1,0,31,0,0
72885,-100,4,2,0,31,0,0
74500,-100,4,1,0,31,0,0
89385,-100,4,1,0,41,0,1
100346,-133.333333333333,4,1,0,41,0,1

[Colours]
Combo1 : 242,242,242
Combo2 : 58,58,58

[HitObjects]
256,120,764,1,4
256,176,995,2,0,B|256:248,3,60,0|0|0|2
368,152,2611,6,0,B|288:152,2,60
368,80,3534,2,0,B|296:80,2,60
272,80,4457,5,2
232,128,4688,1,0
192,80,4918,1,0
160,128,5149,1,0
160,192,5380,2,0,B|160:272,2,60
400,192,6303,6,0,B|344:176|320:208|280:192,1,120
280,72,7226,2,0,B|326:87|342:55|398:71,1,120
256,192,8149,5,0
320,192,8380,2,0,B|384:192,2,60
256,192,9072,1,2
192,192,9303,1,0
128,192,9534,1,0
88,80,9995,5,0
88,80,10226,1,0
88,80,10457,1,0
208,72,10918,5,2
208,72,11149,1,0
208,72,11380,1,0
328,48,11841,6,0,B|400:120,2,60
328,168,12764,5,0
376,208,12995,1,0
440,208,13226,1,0
328,96,13688,6,0,B|272:80|256:120|200:96,1,120
94,105,14611,2,0,B|139:125|155:85|211:101,1,120
264,208,15534,6,0,B|278:161|297:136|376:96,1,120
352,208,16226,1,0
352,208,16457,2,0,B|352:256|309:281|264:304,1,120
208,200,17380,5,4
152,168,17611,1,0
120,120,17841,1,0
232,64,18303,2,0,B|192:120,2,60
296,64,18995,1,0
360,64,19226,2,0,B|408:104|360:224|432:312,1,240,0|2
418,292,20380,1,0
418,292,20611,1,0
256,240,21072,5,4
256,120,21534,2,0,B|256:184,1,60
256,240,21995,1,0
48,40,22918,6,0,B|-56:152|56:384|240:376|264:368,1,480,0|4
256,369,24995,1,0
256,369,25226,1,0
360,312,25688,1,2
416,192,26149,6,0,B|376:216|336:216|296:192,1,120,0|2
248,80,27072,1,0
184,80,27303,2,0,B|184:160,1,60,0|2
216,192,27765,1,0
216,192,27995,1,0
344,192,28457,5,4
344,192,28688,1,0
344,192,28918,1,0
240,248,29380,5,0
240,248,29611,1,0
240,248,29841,1,0
160,160,30303,6,0,B|168:112|184:88|240:64,2,120
160,224,31457,1,0
160,288,31688,1,0
200,336,31918,1,0
264,336,32149,5,4
320,320,32380,2,0,B|359:314|360:264,3,60
440,192,33534,6,0,B|416:152|376:136|312:152,1,120
224,192,34457,1,2
224,192,34918,2,0,B|96:192,1,120
160,88,35841,5,4
160,88,36072,1,0
160,88,36303,1,0
280,88,36765,5,0
320,136,36995,1,0
360,88,37226,1,0
472,136,37688,2,0,B|464:296|288:376|96:328,1,480,0|4
100,329,39765,1,0
100,329,39995,1,0
104,208,40457,5,2
120,152,40688,1,0
160,112,40918,1,0
256,192,41380,12,4,43226
256,144,44611,6,0,B|256:192,2,30
256,80,45072,2,0,B|384:80,1,120,4|0
424,192,45995,6,0,B|352:240,1,60
312,232,46457,2,0,B|312:160,1,60
312,112,46918,1,4
192,136,47380,6,0,B|112:248,2,120
124,235,48765,2,0,B|252:235,1,120,4|0
256,112,49688,5,0
256,112,49918,1,0
256,112,50149,1,0
344,192,50611,6,0,B|336:240|320:264|272:296,1,120
272,168,51534,2,0,B|264:216|248:240|200:272,1,120
120,184,52457,6,0,B|184:168|216:96,3,120,4|0|0|0
312,48,54303,1,4
376,144,54765,5,0
376,144,54995,1,0
376,144,55226,1,4
256,192,55688,6,0,B|208:216|216:256|160:272,1,120,0|4
256,192,56611,2,2,B|256:72,1,120
376,56,57534,5,0
376,112,57765,1,0
376,168,57995,1,4
304,264,58457,2,2,B|216:280|144:240|104:128,1,240
256,80,59841,6,0,B|360:160,2,120,0|0|4
136,88,61226,1,0
96,128,61457,1,0
72,184,61688,1,4
256,336,62611,5,0
304,304,62841,1,0
344,264,63072,1,0
424,176,63534,2,0,B|464:160|483:121|472:56,1,120,4|0
424,176,64457,1,0
424,176,64688,1,0
424,176,64918,1,0
304,176,65380,5,4
200,240,65841,1,2
200,240,66072,1,2
200,240,66303,1,2
40,56,67226,6,0,B|80:32|112:32|168:48,1,120,4|0
256,112,68149,1,2
256,112,68380,1,0
256,112,68611,1,0
376,136,69072,6,0,B|368:176|336:208|272:216,1,120,4|0
256,112,69995,1,2
256,112,70226,1,0
256,112,70457,1,0
136,136,70918,6,0,B|144:176|176:208|240:216,1,120,4|0
256,112,71841,1,2
256,112,72072,1,0
256,112,72303,1,0
376,136,72765,6,0,B|368:176|336:208|272:216,1,120,4|0
256,112,73688,1,2
256,112,73918,1,0
256,112,74149,1,0
256,232,74611,6,0,B|248:272|224:304|176:320,1,120,4|0
72,272,75534,1,4
72,208,75765,1,0
72,152,75995,1,0
104,104,76226,1,0
152,72,76457,1,4
256,128,76918,5,0
256,128,77149,1,0
256,128,77380,2,0,B|296:104|328:104|392:128,1,120,4|0
448,216,78303,2,0,B|408:264|304:304|216:296,2,240,0|4|4
448,48,81072,6,0,B|408:32|376:64|368:32|312:48,1,120,4|0
216,40,81995,2,4,B|152:48|72:160|112:248,1,240
216,264,83380,1,0
272,232,83611,1,0
320,192,83841,1,4
256,192,84764,12,4,87534
256,192,88457,5,0
256,192,88918,1,0
256,192,89380,1,4
312,88,89841,5,0
360,120,90072,1,0
392,168,90303,1,4
376,288,90764,1,0
344,336,90995,1,0
296,368,91226,1,4
184,328,91688,6,4,B|184:200,1,120
64,192,92611,1,0
184,208,93072,6,4,B|224:224|256:192|304:208,2,120,4|0|4
256,112,94457,1,0
256,112,94918,1,4
432,272,95841,6,0,B|415:306|383:333|328:360,1,120,4|0
256,272,96764,1,4
256,152,97226,1,0
256,32,97688,1,4
192,136,98149,1,0
312,136,98611,1,4
152,320,99534,6,0,B|112:288|96:240|112:192,1,120,4|0
120,104,100457,2,0,B|392:104,1,269.999991953373,4|0
256,192,102303,1,4
