osu file format v5

[General]
AudioFilename: 7. Memories of Distant Days 2.mp3
AudioLeadIn: 1015
PreviewTime: -1
Countdown: 0
SampleSet: Soft
StackLeniency: 0.7
Mode: 0
LetterboxInBreaks: 0

[Editor]
DistanceSpacing: 1
BeatDivisor: 4
GridSize: 8

[Metadata]
Title:Memories of Distant Days
Artist:Takenobu Mitsuyoshi
Creator:Real1
Version:Fuku-san
Source:Shenmue
Tags:Shenmue

[Difficulty]
HPDrainRate:0
CircleSize:3
OverallDifficulty:1
SliderMultiplier:1.4
SliderTickRate:2

[Events]
//Background and Video events
0,0,"Shenmue-W16.jpg"
//Break Periods
2,49492,50934
2,57497,58139
2,75112,76434
2,102330,110057
//Storyboard Layer 0 (Background)
//Storyboard Layer 1 (Fail)
//Storyboard Layer 2 (Pass)
//Storyboard Layer 3 (Foreground)
//Storyboard Sound Samples
//Background Colour Transformations
3,100,163,162,255

[TimingPoints]
1270,800.373507636897,4,2,0,61,1,0
57498,-100,4,2,0,21,0,0
59098,-100,4,2,0,61,0,0
75509,-100,4,2,0,50,0,0
76709,-100,4,2,0,69,0,0
77710,-100,4,1,0,60,0,0
78110,-100,4,1,0,60,0,1
81512,-100,4,2,0,65,0,0
124338,-100,4,1,0,50,0,1
129742,-100,4,1,0,41,0,0
131543,-100,4,2,0,21,0,0

[Colours]
Combo1 : 245,245,245
Combo2 : 29,29,29

[HitObjects]
256,192,1270,1,2
256,192,2870,5,2
440,336,3671,6,0,C|8:336,1,420,0|4
80,208,6872,6,0,C|224:208,1,140,0|4
328,296,8473,6,0,C|328:136,1,140,2|2
256,152,9673,2,0,C|32:152,1,210,0|4
168,88,11674,5,2
240,88,12075,1,2
312,88,12475,1,4
384,296,14075,5,2
120,192,15676,5,2
400,192,17277,5,2
328,192,17677,1,2
256,192,18077,1,2
184,192,18478,1,2
112,192,18878,1,4
56,64,19678,6,0,C|224:64,1,140
336,72,21279,2,0,C|336:224,1,140
336,280,22479,2,0,C|112:280,1,210,0|4
88,144,24480,5,2
160,144,24881,1,2
232,144,25281,1,6
40,344,26881,6,0,C|208:344,1,140
248,344,28082,2,0,C|464:344,1,210
464,272,29683,2,0,C|464:56,1,210
392,56,31284,1,4
320,56,31684,1,4
176,56,32484,6,0,C|104:56,2,70,2|0|2
256,168,34085,6,0,C|256:248,5,70,2|0|2|0|2|0
256,304,36486,1,4
128,112,37286,6,0,C|128:280,1,140,0|4
400,192,39687,5,4
120,192,41288,5,4
256,192,42089,6,0,C|256:264,5,70,2|0|2|0|2|0
256,328,44490,1,4
88,192,45290,5,2
88,120,45690,1,2
88,48,46090,1,4
224,56,46891,6,0,C|224:208,2,140
296,56,48892,2,0,C|384:56,1,70,0|4
272,232,52493,6,0,C|344:232,1,70
416,232,53294,1,2
438,88,54094,6,0,C|368:88,1,70
288,88,54895,6,0,C|200:88,1,70,2|0
144,88,55695,2,0,C|144:168,1,70,2|0
144,224,56495,1,2
144,296,56895,1,2
216,296,57296,1,4
56,56,59697,5,2
192,56,60497,1,2
328,56,61298,1,2
448,128,62098,2,0,C|16:128,1,420,0|4
144,264,65299,5,2
344,72,66900,5,2
456,328,68501,5,2
384,328,68901,1,2
312,328,69301,1,2
240,328,69701,1,2
168,328,70102,1,4
256,64,71702,6,2,C|256:224,2,140
376,128,74103,1,4
448,248,74904,1,6
96,192,78105,5,4
376,192,79706,5,0
128,64,81307,5,4
72,192,82107,6,0,C|216:192,2,140,2|0|2
48,256,84108,2,0,C|288:256,1,210,0|2
328,256,85709,2,2,C|328:168,1,70
224,88,86909,6,2,C|136:88,1,70
80,88,87710,1,4
80,224,88510,6,2,C|176:224,1,70
216,224,89311,1,4
352,224,90111,6,0,C|352:152,1,70
352,80,90911,1,4
208,80,91712,5,2
136,80,92112,1,2
64,80,92512,1,4
64,216,93312,5,2
136,216,93713,1,2
208,216,94113,2,0,C|352:216,2,140,4|0|4
312,304,96514,5,0
384,304,96914,1,0
384,232,97314,1,4
296,120,98115,6,0,C|216:120,1,70
152,120,98915,1,4
88,240,99715,6,0,C|240:240,1,140,0|4
336,152,101316,6,0,C|184:152,1,140,0|4
424,320,111721,5,2
208,144,113322,5,2
56,48,114923,5,2
128,48,115323,1,2
200,48,115723,1,2
272,48,116123,1,2
344,48,116523,1,4
344,184,117324,6,0,C|224:280,1,140,0|2
96,272,118924,6,0,C|96:112,2,140
168,272,120925,1,2
240,272,121326,1,4
376,272,122126,6,0,C|376:176,1,70
376,128,122926,1,4
248,192,123727,5,0
176,192,124127,1,0
208,256,124527,5,4
416,64,126128,5,4
168,192,127729,5,0
304,192,128529,1,0
440,192,129329,1,4
328,104,130130,6,0,C|232:104,1,70
184,104,130930,1,4
256,192,131730,12,4,137333
