osu file format v5

[General]
AudioFilename: 17 Slash and Slash.mp3
AudioLeadIn: 0
PreviewTime: -1
Countdown: 1
SampleSet: Normal
StackLeniency: 0.7
Mode: 0
LetterboxInBreaks: 1
SkinPreference:osu! Ends With You

[Metadata]
Title:Slash and Slash
Artist:Takeharu Ishimoto
Creator:Piku184
Version:Normal
Source:
Tags:The World Ends With You TinPin Slammer

[Difficulty]
HPDrainRate:6
CircleSize:5
OverallDifficulty:6
SliderMultiplier:0.8
SliderTickRate:2

[Events]
//Background and Video events
0,0,"wewy_wp_001_1024x768_en.jpg"
//Break Periods
2,30481,35984
//Storyboard Layer 0 (Background)
//Storyboard Layer 1 (Failing)
//Storyboard Layer 2 (Passing)
//Storyboard Layer 3 (Foreground)
//Storyboard Sound Samples
//Background Colour Transformations
3,100,163,162,255

[TimingPoints]
6020,187.5,4,1,0,100,1,0

[HitObjects]
32,32,7145,1,0
96,64,7332,1,2
160,96,7520,1,0
224,128,7707,1,8
224,320,8270,1,0
160,288,8457,1,2
96,256,8645,1,8
32,224,8832,1,8
160,192,9207,1,2
288,192,9582,5,8
288,256,9770,1,12
288,128,10145,5,8
352,96,10332,1,2
416,64,10520,1,0
480,32,10707,1,8
480,224,11270,1,0
416,256,11457,1,2
352,288,11645,1,8
288,320,11832,1,8
352,192,12207,1,2
224,192,12582,5,8
288,192,12770,1,12
192,96,13145,5,0
160,160,13332,1,2
160,224,13520,1,0
192,288,13707,1,8
256,96,14270,1,0
224,160,14457,1,2
224,224,14645,1,8
256,288,14832,1,8
352,192,15207,1,2
256,192,16145,12,4,18207
32,32,19145,5,0
32,96,19332,1,2
32,160,19520,1,0
32,224,19707,1,8
160,352,20270,1,0
96,352,20457,1,2
160,352,20645,1,8
224,352,20832,1,8
352,352,21207,1,2
288,224,21582,5,8
288,160,21770,1,12
192,64,22145,5,0
192,128,22332,1,2
128,96,22520,1,0
128,160,22707,1,8
288,64,23270,1,0
352,96,23457,1,2
352,160,23645,1,8
288,128,23832,1,8
256,256,24207,1,2
128,256,24582,5,8
192,256,24770,1,12
96,160,25145,6,2,L|192:160,3,80
352,160,26270,6,8,L|256:160,3,80
384,160,27207,1,2
192,192,27770,5,0
256,192,27957,1,2
320,192,28145,1,0
128,128,28707,2,8,B|288:128|352:160|384:192|384:192|384:224,1,240
352,288,29645,2,4,B|192:288|128:256|96:224|96:224|96:192,1,240
32,32,37145,5,0
96,32,37332,1,2
96,96,37520,1,0
160,96,37707,1,8
352,96,38270,1,0
416,96,38457,1,2
416,32,38645,1,8
480,32,38832,1,8
480,160,39207,1,2
352,160,39582,5,8
288,160,39770,1,12
224,32,40145,5,0
192,96,40332,1,2
224,160,40520,1,0
192,224,40707,1,8
320,352,41270,1,0
288,288,41457,1,2
320,224,41645,1,8
288,160,41832,1,8
288,32,42207,1,2
416,32,42582,5,8
352,32,42770,1,12
416,128,43145,5,0
352,160,43332,1,2
416,192,43520,1,0
352,224,43707,1,8
160,160,44270,1,0
224,128,44457,1,2
224,192,44645,1,8
160,224,44832,1,8
160,96,45207,1,2
160,320,46145,2,2,B|256:384|352:192,1,240
320,32,47270,2,2,B|224:-32|160:160,1,240
160,288,48207,1,2
256,192,49145,12,2,51770
128,64,52145,5,0
160,96,52332,1,2
192,128,52520,1,0
224,160,52707,1,8
384,64,53270,1,0
352,96,53457,1,2
320,128,53645,1,8
288,160,53832,1,8
256,288,54207,1,2
448,32,55145,5,0
448,96,55332,1,2
448,160,55520,1,0
448,224,55707,1,8
256,224,56270,1,0
192,224,56457,1,2
128,224,56645,1,8
64,224,56832,1,8
64,96,57207,1,2
256,192,58145,12,4,61145
