osu file format v5

[General]
AudioFilename: 17 Slash and Slash.mp3
AudioLeadIn: 0
PreviewTime: -1
Countdown: 1
SampleSet: Normal
StackLeniency: 0.7
Mode: 0
LetterboxInBreaks: 1
SkinPreference:oewy

[Metadata]
Title:Slash and Slash
Artist:Takeharu Ishimoto
Creator:Piku184
Version:Easy
Source:
Tags:The World Ends With You TinPin Slammer

[Difficulty]
HPDrainRate:5
CircleSize:4
OverallDifficulty:5
SliderMultiplier:0.4
SliderTickRate:1

[Events]
//Background and Video events
0,0,"wewy_wp_001_1024x768_en.jpg"
//Break Periods
2,30481,35984
//Storyboard Layer 0 (Background)
//Storyboard Layer 1 (Failing)
//Storyboard Layer 2 (Passing)
//Storyboard Layer 3 (Foreground)
//Storyboard Sound Samples
//Background Colour Transformations
3,100,163,162,255

[TimingPoints]
6020,187.5,4,1,0,100,1,0

[HitObjects]
64,192,7145,5,0
160,192,7707,1,0
256,192,8270,1,0
320,192,8645,1,0
416,192,9208,1,2
416,32,10146,5,0
352,96,10708,1,0
256,96,11271,1,0
192,96,11646,1,0
128,160,12209,1,8
128,320,13146,5,0
192,256,13709,1,0
288,256,14270,2,0,B|384:256,1,80,0|0
416,192,15209,1,10
256,192,15772,12,4,18773
256,96,19148,5,0
256,192,19710,1,0
256,288,20273,2,4,B|96:288,2,120
384,288,22149,5,0
384,192,22711,1,0
384,96,23274,2,4,B|256:96,2,120
256,160,25145,6,0,B|256:288,2,120
192,160,26650,1,0
192,256,27212,1,0
288,224,27770,5,0
352,192,28150,1,0
448,192,28713,1,0
352,192,29275,1,0
288,192,29650,1,0
192,192,30213,1,2
256,352,37152,5,0
192,288,37715,1,0
256,224,38278,1,0
288,192,38653,1,0
352,128,39215,1,4
256,256,40145,6,8,B|384:192,1,120
288,128,41278,2,4,B|160:192,2,120
160,96,43145,5,0
256,96,43716,1,0
256,192,44279,1,0
224,224,44654,2,0,B|128:128,1,120
288,160,46155,5,0
288,64,46717,1,0
224,128,47280,1,0
224,192,47655,1,0
288,256,48218,1,4
416,320,49163,5,0
416,224,49718,1,0
416,128,50281,1,0
352,128,50656,1,0
352,224,51218,1,4
352,64,52156,5,0
352,160,52719,1,0
256,192,53281,2,4,B|256:64,2,120
128,192,55157,5,0
224,192,55719,1,0
320,192,56282,1,0
320,128,56657,1,0
416,128,57207,1,4
320,128,57792,5,0
320,192,58158,1,0
224,192,58720,1,0
128,192,59283,1,0
256,192,59658,12,8,61158
