osu file format v10

[General]
AudioFilename: BattleScene1.mp3
AudioLeadIn: 1500
PreviewTime: 7615
Countdown: 0
SampleSet: Soft
StackLeniency: 0.7
Mode: 0
LetterboxInBreaks: 1

[Editor]
DistanceSpacing: 1.2
BeatDivisor: 4
GridSize: 8

[Metadata]
Title:Battle Theme 1 - arrange - from FINAL FANTASY II
TitleUnicode:
Artist:Takeharu Ishimoto
ArtistUnicode:
Creator:Deni
Version:Easy
Source:Dissidia Final Fantasy
Tags:Game Video RPG 2 Firion KonataN Aldwych the emperor FFII FF2 duodecim 012
BeatmapID:170861
BeatmapSetID:56309

[Difficulty]
HPDrainRate:2
CircleSize:3
OverallDifficulty:2
ApproachRate:4
SliderMultiplier:0.80000000596046
SliderTickRate:1

[Events]
//Background and Video events
0,0,"dissidia_firion___the_emperor_by_Ezio_the_assassin.jpg"
//Break Periods
2,52605,57485
//Storyboard Layer 0 (Background)
//Storyboard Layer 1 (Fail)
//Storyboard Layer 2 (Pass)
//Storyboard Layer 3 (Foreground)
//Storyboard Sound Samples
//Background Colour Transformations
3,100,163,162,255

[TimingPoints]
-395,400,4,2,0,70,1,0
52405,-100,4,2,0,50,0,0
52505,-100,4,2,0,70,0,0
104205,-100,4,2,0,30,0,0
105005,-100,4,2,0,10,0,0

[Colours]
Combo1 : 235,5,11
Combo2 : 163,114,252
Combo3 : 60,117,251
Combo4 : 251,210,51

[HitObjects]
256,120,405,2,0,B|256:32,2,80.000000596046,0|2|4,0:0|0:0|0:0,0:0:0
376,200,1805,5,2,0:0:0
296,320,2405,2,0,B|256:336|216:320,1,80.000000596046,0|0,0:0|0:0,0:0:0
136,200,3405,1,2,0:0:0
72,72,4005,6,0,B|98:35|138:29,1,80.000000596046,0|0,0:0|0:0,0:0:0
256,112,5005,1,2,0:0:0
368,24,5605,6,0,B|407:30|434:66,1,80.000000596046,0|0,0:0|0:0,0:0:0
400,208,6605,1,2,0:0:0
280,288,7205,1,0,0:0:0
184,312,7605,6,0,B|144:328|104:312,2,80.000000596046,2|0|2,0:0|0:0|0:0,0:0:0
192,168,9005,2,0,B|248:168,1,40.000000298023,2|4,0:0|0:0,0:0:0
416,120,10005,6,0,P|376:200,1,80.000000596046,2|0,0:0|0:0,0:0:0
336,280,10805,2,0,P|296:336|208:352,1,160.000001192092,0|2,0:0|0:0,0:0:0
112,336,12005,2,0,B|112:240,2,80.000000596046,0|2|0,0:0|0:0|0:0,0:0:0
184,272,13205,2,0,B|184:184,1,80.000000596046,2|0,0:0|0:0,0:0:0
272,224,14005,6,0,B|344:288|424:224,1,160.000001192092,2|4,0:0|0:0,0:0:0
368,96,15405,2,0,B|320:96,1,40.000000298023,2|4,0:0|0:0,0:0:0
424,264,16405,6,0,B|296:160|168:272,1,280.000002086161,2|0,0:0|0:0,0:0:0
88,312,18205,2,0,B|128:376|216:376|256:304,1,200.000001490115,2|0,0:0|0:0,0:0:0
328,248,19605,1,2,0:0:0
328,152,20005,1,0,0:0:0
328,56,20405,6,0,B|240:16|160:72,1,160.000001192092,0|2,0:0|0:0,0:0:0
120,144,21605,1,0,0:0:0
120,240,22005,2,0,B|120:296,1,40.000000298023,4|4,0:0|0:0,0:0:0
456,272,23605,6,0,B|376:320|296:272,1,160.000001192092,0|2,0:0|0:0,0:0:0
272,184,24805,1,0,0:0:0
272,88,25205,2,0,B|272:32,1,40.000000298023,4|4,0:0|0:0,0:0:0
64,192,26805,5,0,0:0:0
208,192,27405,1,2,0:0:0
352,192,28005,2,0,B|352:136,2,40.000000298023,0|0|2,0:0|0:0|0:0,0:0:0
352,336,29005,5,2,0:0:0
208,336,29605,2,0,B|208:296,2,40.000000298023,0|0|2,0:0|0:0|0:0,0:0:0
64,336,30605,1,2,0:0:0
64,192,31205,5,0,0:0:0
64,96,31605,1,2,0:0:0
208,96,32205,1,2,0:0:0
352,96,32805,1,0,0:0:0
448,112,33205,6,0,B|464:208|360:224,1,160.000001192092,2|2,0:0|0:0,0:0:0
216,224,34605,2,0,B|160:224,1,40.000000298023,2|4,0:0|0:0,0:0:0
96,48,35605,6,0,B|40:72|40:168|96:192,2,160.000001192092,2|0|2,0:0|0:0|0:0,0:0:0
144,128,37605,2,0,B|192:176|176:248|112:272,2,160.000001192092,2|0|2,0:0|0:0|0:0,0:0:0
224,80,39605,6,0,P|296:56|320:128,1,160.000001192092,2|4,0:0|0:0,0:0:0
328,264,41005,2,0,B|328:304,1,40.000000298023,2|4,0:0|0:0,0:0:0
152,224,42005,5,2,0:0:0
56,224,42405,1,0,0:0:0
56,128,42805,2,0,B|56:40|184:32,2,160.000001192092,0|0|2,0:0|0:0|0:0,0:0:0
56,224,44805,1,0,0:0:0
56,320,45205,1,2,0:0:0
152,320,45605,1,0,0:0:0
248,320,46005,6,0,B|344:320|344:112,1,240.000001788138,0|2,0:0|0:0,0:0:0
344,32,47605,2,0,B|288:32,1,40.000000298023,2|4,0:0|0:0,0:0:0
136,320,49205,6,0,B|40:320|40:104,1,240.000001788138,0|2,0:0|0:0,0:0:0
40,32,50805,2,0,B|80:32,1,40.000000298023,2|4,0:0|0:0,0:0:0
256,192,51205,12,0,52405,0:0:0
48,272,58805,6,0,B|96:336|160:264,1,120.000000894069
224,216,59805,1,0,0:0:0
296,152,60205,1,2,0:0:0
384,112,60605,6,0,B|312:56,1,80.000000596046
224,64,61405,2,0,B|128:64,1,80.000000596046,0|2,0:0|0:0,0:0:0
256,192,62005,12,0,64405,0:0:0
104,48,65205,6,0,B|24:64|48:144,1,120.000000894069
96,216,66205,1,0,0:0:0
144,128,66605,1,2,0:0:0
240,128,67005,2,0,B|312:64,1,80.000000596046,0|2,0:0|0:0,0:0:0
336,160,67805,1,0,0:0:0
408,104,68205,2,0,B|368:64,1,40.000000298023,0|2,0:0|0:0,0:0:0
288,40,68805,5,0,0:0:0
192,40,69205,1,2,0:0:0
96,40,69605,1,0,0:0:0
96,136,70005,1,2,0:0:0
96,232,70405,1,0,0:0:0
192,232,70805,2,0,B|272:232,1,80.000000596046,2|0,0:0|0:0,0:0:0
344,296,71605,5,4,0:0:0
344,152,72205,1,2,0:0:0
200,152,72805,6,0,B|200:104,2,40.000000298023,0|0|2,0:0|0:0|0:0,0:0:0
56,152,73805,1,2,0:0:0
96,288,74405,6,0,B|48:288,2,40.000000298023,0|0|2,0:0|0:0|0:0,0:0:0
240,288,75405,1,2,0:0:0
384,288,76005,6,0,B|328:208,1,80.000000596046,0|2,0:0|0:0,0:0:0
256,104,77005,1,2,0:0:0
120,48,77605,5,0,0:0:0
120,144,78005,1,2,0:0:0
120,288,78605,1,2,0:0:0
264,288,79205,5,0,0:0:0
360,288,79605,1,2,0:0:0
312,152,80205,1,2,0:0:0
168,152,80805,6,0,B|168:96,2,40.000000298023,0|0|2,0:0|0:0|0:0,0:0:0
168,296,81805,1,2,0:0:0
312,296,82405,6,0,B|344:320|344:320|376:296|376:296|376:296|376:296|376:296|376:296|376:296|376:296|376:296,1,80.000000596046,0|2,0:0|0:0,0:0:0
392,152,83405,1,2,0:0:0
264,80,84005,6,0,B|296:48,2,40.000000298023,0|0|2,0:0|0:0|0:0,0:0:0
160,184,85005,1,2,0:0:0
56,288,85605,1,0,0:0:0
152,288,86005,5,2,0:0:0
296,288,86605,1,2,0:0:0
224,168,87205,1,0,0:0:0
276,88,87605,6,0,P|220:68|164:92,2,120.000000894069,2|2|0,0:0|0:0|0:0,0:0:0
328,168,89205,5,2,0:0:0
188,204,89805,1,2,0:0:0
292,304,90405,1,0,0:0:0
196,320,90805,6,0,B|336:392|456:284,1,280.000002086161,2|0,0:0|0:0,0:0:0
472,200,92605,2,0,B|472:144,2,40.000000298023,0|2|0,0:0|0:0|0:0,0:0:0
384,160,93405,2,0,B|328:160,1,40.000000298023,2|0,0:0|0:0,0:0:0
344,64,94005,6,0,B|96:64|96:352|360:352,1,520.000003874299,2|0,0:0|0:0,0:0:0
376,208,97205,6,0,P|328:208,1,40.000000298023,0|2,0:0|0:0,0:0:0
192,208,98005,1,2,0:0:0
256,336,98605,1,2,0:0:0
32,264,99805,6,0,B|88:208,1,80.000000596046
160,136,100605,5,2,0:0:0
256,32,101205,1,2,0:0:0
352,136,101805,1,2,0:0:0
208,320,103005,5,0,0:0:0
304,320,103405,1,0,0:0:0
256,192,103805,12,0,105405,0:0:0
