osu file format v9

[General]
AudioFilename: Tokyo Mew Mew - Character Songs - Zakuro - 01 Mew Zakuro no Theme.mp3
AudioLeadIn: 0
PreviewTime: 45235
Countdown: 0
SampleSet: Normal
StackLeniency: 0.8
Mode: 0
LetterboxInBreaks: 1

[Editor]
DistanceSpacing: 0.6
BeatDivisor: 4
GridSize: 8

[Metadata]
Title:Mew Zakuro no Theme
Artist:Takayuki Negishi
Creator:gkana
Version:Normal
Source:Tokyo Mew Mew
Tags:Saten-san

[Difficulty]
HPDrainRate:4
CircleSize:4
OverallDifficulty:4
ApproachRate:5
SliderMultiplier:1.3
SliderTickRate:1

[Events]
//Background and Video events
0,0,"tokyomewmew_5_800.jpg"
//Break Periods
//Storyboard Layer 0 (Background)
//Storyboard Layer 1 (Fail)
//Storyboard Layer 2 (Pass)
//Storyboard Layer 3 (Foreground)
//Storyboard Sound Samples
//Background Colour Transformations
3,100,163,162,255

[TimingPoints]
2035,300,4,1,1,50,1,0
45235,-100,4,1,1,50,0,1
54835,-100,4,1,1,50,0,0

[Colours]
Combo1 : 88,98,167
Combo2 : 193,62,118
Combo3 : 153,56,173
Combo4 : 249,134,157

[HitObjects]
256,192,2035,12,0,4435
80,56,5635,5,8
80,176,6085,1,8
200,176,6535,1,8
280,176,6835,6,0,B|344:176|392:232,1,130
440,296,7435,2,0,B|520:168|464:48,2,260
376,344,8935,2,0,B|312:368|248:344,1,130
184,296,9535,2,0,B|136:248|128:176,1,130
128,104,10135,1,0
192,64,10435,5,0
256,112,10735,1,0
256,192,11035,1,0
336,192,11335,1,0
400,152,11635,6,0,B|480:152|480:232,3,130,4|8|0|8
400,240,12835,2,0,B|399:320|319:320,2,130,0|8|0
400,240,13585,1,4
288,200,14035,6,0,B|200:200|200:280,3,130,4|8|0|8
120,272,15235,2,0,B|33:272|33:198,3,130,0|8|0|8
104,168,16435,6,0,B|152:112|240:120,1,130
256,192,17035,2,0,B|256:264,1,65,0|8
328,296,17485,2,0,B|440:264|440:152,1,195
368,128,18235,2,0,B|304:128,1,65,0|8
184,128,18835,2,0,B|160:200|184:256,1,130,0|8
264,256,19435,2,0,B|264:320,2,65
264,216,19885,6,0,B|280:112|376:64,1,195,4|8
416,72,20485,2,0,B|480:160|432:256,1,195,4|8
384,320,21235,6,0,B|336:264|352:200,1,130,4|8
328,128,21835,2,0,B|272:88,1,65
200,72,22285,2,0,B|80:96|72:208,1,195,0|8
80,280,23035,1,0
144,328,23335,1,8
224,336,23635,6,0,B|344:232|192:208|304:104,1,260
376,80,24535,1,0
432,136,24835,1,0
392,208,25135,1,0
312,208,25435,2,0,B|248:208,1,65
208,208,25735,2,0,B|144:208,1,65
104,208,26035,6,0,B|32:192|8:128,1,130
48,64,26635,2,0,B|112:64,1,65
176,112,27085,2,0,B|248:176|248:304,1,195
184,336,27835,2,0,B|240:376,1,65
352,368,28435,6,0,B|424:344|440:272,1,130
440,200,29035,2,0,B|440:128,2,65,0|0|8
400,200,29485,1,4
256,264,30085,2,0,B|320:160|256:80,1,195
176,80,30835,6,0,B|120:120|104:200,1,130
176,248,31435,2,0,B|168:288|128:304,2,65,0|0|8
192,216,31885,2,0,B|208:120|320:80,1,195
328,160,32635,1,0
392,120,32935,1,0
424,192,33235,6,0,B|384:328|240:360,1,260
184,312,34135,1,8
160,240,34435,2,0,B|136:176|176:112,1,130,8|8
232,64,35035,2,0,B|288:32|360:32,1,130,8|8
432,32,35635,6,0,B|432:96,1,65
408,128,35935,2,0,B|344:128,1,65
264,128,36385,5,0
184,128,36685,2,0,B|144:144|112:168|104:232|128:288|176:320|216:336|248:336|288:328,1,325
328,272,37735,1,0
344,192,38035,6,0,B|304:176|296:128,1,65
320,112,38335,2,0,B|336:80|376:72,1,65
448,80,38785,1,0
504,136,39085,2,0,B|368:192|504:296|352:352|208:296|336:192|200:136,1,455
128,104,40435,5,0
112,184,40735,2,0,B|128:216|160:232,1,65
232,232,41185,1,0
312,232,41485,2,0,B|312:352|192:352,1,195
144,288,42235,1,0
144,208,42535,1,0
200,144,42835,1,6
320,144,43285,1,6
200,144,43735,1,6
256,48,45235,5,4
200,104,45535,2,0,B|152:152,1,65
224,176,45985,1,0
208,256,46285,2,0,B|88:256|88:136,1,195
88,56,47035,1,0
168,56,47335,1,0
248,56,47635,2,0,B|328:160|328:-40|328:176|432:40,1,195
432,176,48535,2,0,B|432:240,1,65
320,264,49135,2,0,B|320:192,1,65
256,328,50035,5,4
184,304,50335,2,0,B|144:296|128:264,1,65
104,192,50785,1,0
160,136,51085,2,0,B|288:136|288:248,1,195
368,248,51835,1,0
368,168,52135,1,0
368,88,52435,5,0
312,136,52735,2,0,B|264:184,1,65
192,184,53185,1,0
256,192,53485,12,4,54835
256,48,56035,5,0
256,312,57235,1,0
256,48,58435,1,0
96,48,59035,1,0
200,168,59635,6,0,B|200:208|232:232,1,65,0|8
304,224,60085,2,0,B|344:216|360:184,1,65,8|0
424,152,60535,2,0,B|424:224,1,65,0|8
256,192,61135,8,4,64435
