osu file format v9

[General]
AudioFilename: Tokyo Mew Mew - Character Songs - Zakuro - 01 Mew Zakuro no Theme.mp3
AudioLeadIn: 0
PreviewTime: 45235
Countdown: 0
SampleSet: Normal
StackLeniency: 0.7
Mode: 0
LetterboxInBreaks: 1

[Editor]
DistanceSpacing: 1.2
BeatDivisor: 4
GridSize: 8

[Metadata]
Title:Mew Zakuro no Theme
Artist:Takayuki Negishi
Creator:gkana
Version:Hard
Source:Tokyo Mew Mew
Tags:Saten-san

[Difficulty]
HPDrainRate:6
CircleSize:4
OverallDifficulty:6
ApproachRate:7
SliderMultiplier:1.29999990463257
SliderTickRate:2

[Events]
//Background and Video events
0,0,"tokyomewmew_5_800.jpg"
//Break Periods
//Storyboard Layer 0 (Background)
//Storyboard Layer 1 (Fail)
//Storyboard Layer 2 (Pass)
//Storyboard Layer 3 (Foreground)
//Storyboard Sound Samples
//Background Colour Transformations
3,100,163,162,255

[TimingPoints]
2035,300,4,1,1,50,1,0
45235,-100,4,1,1,50,0,1
54835,-100,4,1,1,50,0,0

[Colours]
Combo1 : 88,98,167
Combo2 : 193,62,118
Combo3 : 153,56,173
Combo4 : 249,134,157

[HitObjects]
48,127,1435,2,0,B|48:159,6,32.5
88,80,2035,2,0,B|112:56|144:48,1,64.9999952316285
208,48,2335,2,0,B|208:128,1,64.9999952316285,8|0
272,112,2635,2,0,B|272:40,1,64.9999952316285,0|0
336,48,2935,2,0,B|336:128|336:120,1,64.9999952316285,8|8
400,112,3235,2,0,B|400:32,1,64.9999952316285,0|8
464,48,3535,2,0,B|464:128,1,64.9999952316285,8|8
464,192,3835,6,0,B|464:280,1,64.9999952316285,0|0
408,296,4135,2,0,B|344:296,1,64.9999952316285,8|0
280,296,4435,1,0
144,216,4735,6,0,B|144:168,9,43.333330154419
344,48,6085,1,8
344,336,6535,1,0
80,192,6835,1,12
256,40,8035,6,0,B|184:40|136:96,1,129.999990463257
256,192,8635,2,8,B|200:192,3,43.333330154419
368,192,9235,1,4
80,72,10435,5,8
80,200,10735,1,0
208,200,11035,1,8
208,72,11335,1,0
360,72,11635,6,0,B|456:144|384:168,1,129.999990463257,4|8
240,128,12235,2,0,B|144:200|216:224,1,129.999990463257,0|8
368,192,12835,2,0,B|436:215|340:287,1,129.999990463257,0|8
184,288,13435,2,0,B|104:288,1,64.9999952316285,0|8
32,160,14035,5,4
104,24,14335,2,8,B|104:104|184:104,1,129.999990463257,8|0
184,264,14935,2,0,B|312:263,1,129.999990463257,8|0
472,264,15535,2,0,B|424:192|520:168|448:80,1,194.999985694886,8|0
368,304,16435,6,0,B|312:352|240:312,1,129.999990463257
184,264,16885,1,0
104,264,17035,2,8,B|64:264|40:240,1,64.9999952316285
40,168,17335,1,0
72,96,17485,2,0,B|128:56|200:72,1,129.999990463257
256,128,17935,1,0
336,264,18235,6,0,B|336:176,1,64.9999952316285
336,40,18685,2,0,B|336:120,1,64.9999952316285
256,240,19135,1,8
200,96,19435,2,0,B|200:160,1,64.9999952316285
144,216,19735,1,0
104,152,19885,2,0,B|16:240|96:336,2,194.999985694886
104,152,20935,1,0
256,104,21235,6,0,B|208:160|240:248,1,129.999990463257
288,280,21685,1,0
360,304,21835,2,8,B|392:296|416:264,1,64.9999952316285
448,200,22135,1,0
448,120,22285,2,0,B|416:144|384:136,2,64.9999952316285
480,48,22735,2,0,B|448:8|408:104|352:40,1,129.999990463257,0|0
208,40,23335,1,8
120,216,23635,2,0,B|8:232|40:80,1,194.999985694886,0|4
256,192,24235,12,0,25735
96,24,26035,6,0,B|160:48|200:104,1,129.999990463257,0|4
240,168,26485,1,0
304,216,26635,2,8,B|344:208|352:176,2,64.9999952316285
240,256,27085,2,0,B|112:240|120:104,1,194.999985694886
152,56,27685,1,0
232,56,27835,6,0,B|272:56|296:88,1,64.9999952316285
344,136,28135,2,0,B|368:168|360:200,1,64.9999952316285
376,272,28435,2,0,B|392:304|432:304,1,64.9999952316285
480,248,28735,2,0,B|496:208|488:176,1,64.9999952316285
480,104,29035,2,0,B|464:72|432:64,1,64.9999952316285
360,40,29335,2,0,B|328:24|288:40,1,64.9999952316285
296,192,29785,2,0,B|280:224|248:240,1,64.9999952316285
184,280,30085,1,0
232,136,30385,2,0,B|216:96|184:80,1,64.9999952316285
48,32,30835,6,0,B|48:168,1,129.999990463257,4|0
128,184,31285,1,0
168,120,31435,2,8,B|168:55,1,64.9999952316285
240,80,31735,1,0
320,80,31885,6,0,B|400:128|424:32|528:88,1,194.999985694886
400,192,32635,2,8,B|336:208|328:160|248:192,1,129.999990463257
120,192,33235,2,0,B|88:192|64:184|40:160|40:120|64:96|88:80|128:80,1,194.999985694886
200,80,33835,6,0,B|272:80|296:152,1,129.999990463257,0|8
232,200,34285,2,0,B|272:256|344:256,1,129.999990463257,0|8
384,320,34735,2,0,B|312:352,1,64.9999952316285,8|0
248,352,35035,2,0,B|184:320,1,64.9999952316285,8|0
128,272,35335,2,0,B|128:200,1,64.9999952316285,8|0
128,72,35635,6,0,B|128:152,1,64.9999952316285
208,136,35935,2,8,B|272:136,1,64.9999952316285
416,192,36385,1,0
264,208,36685,2,0,B|336:232|360:288|312:352|248:368|184:352|168:304|168:248|168:216|112:208|48:224|48:304,1,454.999966621399
384,72,38035,6,0,B|384:152,1,64.9999952316285
304,136,38335,2,8,B|240:136,1,64.9999952316285
96,192,38785,1,0
248,208,39085,2,0,B|176:232|152:288|200:352|264:368|328:352|344:304|344:248|344:216|400:208|464:224|464:304,1,454.999966621399
176,95,40435,6,0,B|232:56|300:69,1,129.999990463257
376,80,40885,2,0,B|440:96|472:160,1,129.999990463257
317,200,41485,2,0,B|206:208|176:95,1,194.999985694886
304,64,42235,1,0
392,192,42535,1,0
296,312,42835,5,6
72,232,43285,1,6
256,88,43735,1,6
256,192,44185,12,4,45235
56,40,45535,6,0,B|72:72|112:80,1,64.9999952316285
176,112,45835,1,0
248,136,45985,2,0,B|232:232|144:192,2,129.999990463257
320,96,46735,1,0
448,192,47035,1,0
312,272,47335,1,0
176,192,47635,1,0
256,192,47935,12,8,50035
448,56,50335,6,0,B|448:88|416:112,1,64.9999952316285
336,112,50635,1,0
256,112,50785,2,0,B|184:128|160:192,2,129.999990463257
304,176,51535,2,0,B|360:216|344:304,2,129.999990463257
232,312,52435,2,0,B|184:256|192:192,1,129.999990463257
240,128,52885,2,0,B|288:80|368:120,1,129.999990463257
256,192,53485,12,4,54835
48,80,56035,5,4
464,80,57235,1,4
64,192,58435,1,4
256,104,59035,1,4
140,264,59635,5,8
200,312,59785,1,0
372,264,60085,5,8
312,312,60235,1,0
256,104,60535,5,8
256,28,60685,1,0
256,264,61135,5,8
256,192,61285,8,4,64435
