osu file format v5

[General]
AudioFilename: Yeah! Break! Care! Break!.mp3
AudioLeadIn: 0
PreviewTime: -1
Countdown: 2
SampleSet: Normal
StackLeniency: 0.7
Mode: 0
LetterboxInBreaks: 1
EditorDistanceSpacing: 0.800000011920929

[Metadata]
Title:Yeah! Break! Care! Break!
Artist:Takayoshi Tanimoto
Creator:Selectus
Version:Normal
Source:
Tags:dragon ball kai

[Difficulty]
HPDrainRate:5
CircleSize:5
OverallDifficulty:5
SliderMultiplier:1.4
SliderTickRate:1

[Events]
//Background and Video events
0,0,"dbkaiwall1.jpg"
//Break Periods
//Storyboard Layer 0 (Background)
//Storyboard Layer 1 (Failing)
//Storyboard Layer 2 (Passing)
//Storyboard Layer 3 (Foreground)
//Storyboard Sound Samples
//Background Colour Transformations
3,100,163,162,255

[TimingPoints]
998,372.62451869333,4,2,1,100,1,0
32112,-100,4,1,1,100,0,0
33788,-100,4,1,1,90,0,1
45469,-100,4,1,1,90,0,0
45712,-100,4,1,1,90,0,1

[HitObjects]
112,112,8450,5,0
224,112,8823,2,0,B|304:112|304:208,1,140,8|0
304,320,9568,1,8
416,320,9940,1,0
416,208,10313,1,8
416,96,10686,2,0,B|416:8|288:32,1,140,0|8
208,32,11431,6,0,B|96:35|113:110,1,140,0|8
112,216,12176,2,0,B|112:296,2,70,0|8|0
112,104,12921,1,8
224,104,13294,1,0
224,104,13480,1,4
432,304,14412,5,8
432,192,14785,2,0,B|432:80|336:96,1,140,0|8
240,96,15530,1,0
128,96,15902,1,8
128,208,16275,1,0
128,208,16461,1,4
288,208,17020,6,2,B|368:208,2,70,0|0|0
288,208,17766,2,2,B|288:128,2,70
288,208,18511,2,4,B|192:208,2,70,0|0|0
96,336,20374,6,0,B|16:144|96:64|176:32|304:64|336:272,1,560,0|0
219,260,22237,2,0,B|187:196,3,70
144,32,23355,6,0,B|416:0|480:304|176:336,1,560,0|0
128,120,25591,2,0,B|192:168,3,70
232,128,26336,5,8
344,128,26709,1,0
344,240,27081,1,8
232,240,27454,1,0
128,208,27826,2,0,B|96:176|144:128,4,70,8|0|8|0|8
128,320,28944,1,8
240,320,29317,5,8
352,320,29690,1,0
352,208,30062,1,8
240,208,30435,1,0
296,112,30807,2,0,B|296:48,12,35,8|0|8|0|8|8|0|8|8|0|8|0|12
256,192,32298,12,0,33230
432,288,33788,5,8
320,288,34161,2,0,B|224:288|244:174,1,140,0|8
240,80,34906,1,0
128,80,35279,1,8
128,80,35652,1,0
128,80,36024,1,8
128,192,36397,1,8
128,304,36769,5,8
240,304,37142,2,0,B|336:320|320:192,1,140,0|8
320,112,37887,2,0,B|384:48,4,70
208,112,39005,2,0,B|160:48,2,70,0|8|0
112,168,39750,1,12
208,224,40123,6,0,B|288:224,3,70,8|0|0|8
384,224,41055,1,8
384,112,41427,2,0,B|432:32|336:32|320:112|208:96,1,210
128,96,42359,1,8
144,208,42731,2,0,B|240:176|176:288|288:272|352:224,1,210
336,64,43849,2,0,B|432:64,2,70,8|0|8
160,64,44781,1,8
368,256,45712,5,8
256,256,46085,1,0
144,256,46458,1,8
192,160,46830,2,0,B|336:160,1,140,0|8
448,160,47576,2,0,B|512:160|384:288,1,140,0|8
288,272,48321,1,0
176,272,48693,5,8
176,160,49066,1,0
288,160,49439,1,8
288,48,49811,1,0
400,48,50184,1,8
400,160,50557,2,0,B|432:192|480:144,2,70,0|8|0
288,160,51302,2,0,B|256:192|208:144,2,70,0|8|0
400,160,52047,5,8
400,256,52420,1,0
288,256,52792,2,0,B|208:256|224:144,1,140,8|0
224,48,53538,1,8
336,48,53910,2,0,B|448:48|448:144,2,140,0|8|0
224,48,55028,1,8
112,48,55401,1,0
112,160,55773,1,8
160,184,55960,6,4,B|272:184|224:248|208:136,1,140
160,48,56705,1,4
80,128,57077,2,0,B|48:160|96:208,2,70
160,48,57823,5,0
272,48,58195,1,4
328,48,58382,1,4
