osu file format v5

[General]
AudioFilename: Yeah! Break! Care! Break!.mp3
AudioLeadIn: 0
PreviewTime: -1
Countdown: 1
SampleSet: Soft
StackLeniency: 0.7
Mode: 0
LetterboxInBreaks: 1
EditorDistanceSpacing: 0.800000011920929

[Metadata]
Title:Yeah! Break! Care! Break!
Artist:Takayoshi Tanimoto
Creator:Selectus
Version:Easy
Source:
Tags:dragon ball kai

[Difficulty]
HPDrainRate:4
CircleSize:4
OverallDifficulty:4
SliderMultiplier:1.4
SliderTickRate:1

[Events]
//Background and Video events
0,0,"dbkaiwall1.jpg"
//Break Periods
//Storyboard Layer 0 (Background)
//Storyboard Layer 1 (Failing)
//Storyboard Layer 2 (Passing)
//Storyboard Layer 3 (Foreground)
//Storyboard Sound Samples
//Background Colour Transformations
3,100,163,162,255

[TimingPoints]
998,745.24903738666,4,2,0,100,1,0
33788,-100,4,1,0,90,0,1
45469,-100,4,1,0,90,0,0
45712,-100,4,1,0,90,0,1

[Colours]
Combo1 : 255,150,0
Combo2 : 5,240,5
Combo3 : 5,5,240
Combo4 : 240,5,5
Combo5 : 5,240,240

[HitObjects]
112,80,8450,5,2
224,80,9195,2,0,B|320:80|304:176,1,140,0|2
304,272,10686,2,0,B|320:368|192:352,1,140,0|2
112,352,12176,1,0
112,240,12921,2,0,B|96:144|208:160,2,140,2|0|2
112,352,15157,5,0
224,352,15902,2,0,B|288:288|368:368,1,140,0|0
464,352,17393,1,2
448,288,17766,2,2,B|448:240|384:224,1,70
339,235,18511,2,2,B|291:251|307:315,1,70,2|4
96,320,20374,5,0
96,208,21119,1,8
96,96,21864,1,0
208,96,22610,2,0,B|256:96,2,35,8|0|8
208,160,23355,5,0
206,271,24100,1,8
320,272,24845,1,0
320,160,25591,2,8,B|368:160,2,35,8|0|8
256,160,26336,5,0
144,160,27081,1,8
32,160,27826,1,0
144,160,28572,1,8
256,160,29317,2,0,B|352:160|352:272,1,140,0|8
352,352,30807,2,2,B|272:384|272:288|144:352,1,210
384,112,33788,5,8
272,112,34534,1,0
272,224,35279,1,8
272,224,35652,1,0
272,224,36024,1,8
272,112,36769,5,8
272,224,37515,1,0
384,224,38260,2,0,B|384:128,2,70,8|0|8
384,336,39750,5,8
272,336,40496,2,0,B|128:336,1,140
128,224,41986,1,8
240,224,42731,2,0,B|400:224,1,140
384,112,44222,1,8
272,112,44967,2,2,B|208:112,2,35
272,48,45712,5,8
160,48,46458,2,0,B|64:32|80:144,1,140,0|8
80,224,47948,2,0,B|64:320|192:304,1,140,0|8
272,304,49439,1,0
384,304,50184,2,0,B|464:304|448:192,1,140,0|8
448,96,51674,1,4
336,96,52420,5,8
224,96,53165,1,0
224,208,53910,1,8
336,208,54655,2,0,B|416:192|400:336,1,140,0|8
288,304,56146,1,0
192,304,56705,1,0
48,304,57823,5,8
48,240,58195,1,0
48,240,58382,1,12
