osu file format v9

[General]
AudioFilename: kirame.mp3
AudioLeadIn: 2353
PreviewTime: 60387
Countdown: 0
SampleSet: Soft
StackLeniency: 0.7
Mode: 0
LetterboxInBreaks: 1

[Editor]
Bookmarks: 98054
DistanceSpacing: 1.5
BeatDivisor: 4
GridSize: 8

[Metadata]
Title:Kirame Kirari
Artist:Takatsuki Yayoi
Creator:val0108
Version:Insane
Source:Idolmaster
Tags:yura

[Difficulty]
HPDrainRate:6
CircleSize:4
OverallDifficulty:7
ApproachRate:8
SliderMultiplier:1.8
SliderTickRate:1

[Events]
//Background and Video events
0,0,"kiramekirari.jpg"
//Break Periods
2,87387,94646
//Storyboard Layer 0 (Background)
//Storyboard Layer 1 (Fail)
//Storyboard Layer 2 (Pass)
//Storyboard Layer 3 (Foreground)
//Storyboard Sound Samples
//Background Colour Transformations
3,100,163,162,255

[TimingPoints]
730,333.333333333333,4,2,2,86,1,0
5646,-100,4,2,2,0,0,0
5896,-100,4,2,2,100,0,0
16313,-100,4,2,1,69,0,0
16479,-100,4,2,2,100,0,0
32146,-100,4,2,1,77,0,0
37979,-100,4,2,2,100,0,0
46063,-133.333333333333,4,2,0,76,0,0
50563,-200,4,2,0,76,0,0
51396,-100,4,2,2,100,0,0
55313,-100,4,2,2,75,0,0
60729,-100,4,2,2,100,0,1
68729,-100,4,2,2,100,0,0
71396,-100,4,2,2,100,0,1
79396,-100,4,2,2,100,0,0
81729,-100,4,2,0,61,0,1
81813,-100,4,2,2,84,0,0
87063,-100,4,2,2,0,0,0
87229,-100,4,2,2,100,0,0
113479,-100,4,2,1,82,0,0
119313,-100,4,2,2,100,0,0
127396,-133.333333333333,4,2,0,78,0,0
131896,-200,4,2,0,79,0,0
132729,-100,4,2,2,100,0,0
142063,-100,4,2,2,100,0,1
150063,-100,4,2,2,100,0,0
152729,-100,4,2,2,100,0,1
153979,-100,4,2,0,100,0,1
155313,-100,4,2,2,100,0,1
162729,-100,4,2,2,100,0,0

[Colours]
Combo1 : 240,5,5
Combo2 : 255,128,0
Combo3 : 255,128,255

[HitObjects]
152,64,730,2,6,B|104:56|56:72,1,90
112,192,1063,2,0,B|152:224|216:232,1,90
192,136,1396,1,6
280,152,1563,1,6
312,232,1729,1,0
312,320,1896,2,0,B|248:320|200:312,1,90,0|6
112,192,2229,6,0,B|96:144|104:96,1,90,6|0
192,136,2563,2,0,B|256:144|296:128,1,90,0|6
312,48,2896,1,6
384,104,3063,1,0
392,192,3229,1,0
240,224,3396,6,6,B|280:280|320:288,1,90
264,160,3729,2,0,B|216:112|176:104,1,90
112,192,4063,5,6
256,304,4229,1,6
392,192,4396,1,2
256,72,4563,1,6
256,344,4896,6,6,B|256:240,1,90
256,73,5396,1,6
256,192,5729,6,0,B|256:248,1,45
416,256,6063,5,4
396,168,6229,2,0,B|439:175|479:199,2,90,0|8|0
336,240,6729,2,0,B|336:296|280:312,1,90
288,309,7063,1,8
256,224,7229,6,0,B|184:160,1,90
92,67,7563,2,0,B|158:135,1,90,0|8
82,246,7896,2,0,B|146:174,1,90
205,114,8229,1,2
309,26,8396,1,2
421,106,8563,1,2
464,184,8729,5,4
376,176,8896,2,0,B|336:136|344:88,1,90,0|8
280,160,9229,1,0
200,202,9396,2,0,B|144:170|136:130,1,90
90,215,9729,1,8
80,304,9896,6,0,B|144:328|192:336,1,90,2|0
432,304,10229,2,8,B|368:328|320:336,1,90,2|0
256,344,10563,2,2,B|272:304|224:288|264:240,1,90,2|2
252,166,10896,1,8
160,64,11063,1,8
176,200,11229,1,8
248,80,11396,5,4
128,136,11563,2,0,B|96:184|96:232,2,90,0|8|0
208,104,12063,2,0,B|288:128|304:152,2,90,0|0|8
200,192,12563,2,0,B|256:264,1,90
120,272,12896,2,0,B|224:320,1,90,0|8
88,376,13230,2,0,B|208:376,1,90
264,360,13563,5,2
368,272,13730,1,2
432,152,13896,1,2
352,192,14063,5,2
119,55,14396,1,2
119,55,14563,1,2
119,324,14896,1,2
388,324,15230,1,2
256,80,15563,5,8
184,192,15730,1,8
256,304,15896,1,8
330,191,16063,1,8
256,8,16396,5,6
120,240,16730,6,0,B|80:264|64:320,1,90
160,312,17063,2,0,B|216:344|256:344,1,90,8|0
224,256,17396,2,0,B|216:192|176:160,1,90
104,176,17730,1,8
24,136,17896,2,0,B|64:56,1,90
152,24,18230,1,0
216,88,18396,1,8
279,24,18563,5,0
384,104,18730,1,0
264,160,18896,1,2
336,48,19063,1,2
440,136,19229,1,2
312,184,19396,6,0,B|296:240|312:280,1,90,4|0
384,224,19729,1,8
384,312,19896,2,0,B|336:352|272:344,2,90
456,256,20396,1,8
384,224,20563,6,8,B|328:176|288:168,1,90,2|0
136,152,20896,2,8,B|184:112|216:96,1,90,2|8
299,99,21229,1,2
256,24,21396,5,2
256,159,21563,1,2
256,293,21729,1,10
256,297,21813,1,2
256,301,21896,1,2
256,305,21979,1,2
256,309,22063,6,0,B|144:336,1,90,4|0
37,296,22396,2,0,B|157:264,1,90,8|0
219,177,22729,2,0,B|120:200,1,90
43,175,23063,2,0,B|83:111|131:103,2,90,8|0|0
130,198,23563,1,0
208,240,23729,1,8
298,240,23896,5,0
415,171,24063,1,2
298,104,24229,1,2
298,239,24396,5,10
162,239,24563,1,2
162,104,24729,2,0,B|64:104,1,90,6|0
208,104,25063,2,0,B|304:104,1,90,8|0
415,171,25396,2,0,B|384:224|328:240,2,90,0|0|8
328,160,25896,6,8,B|296:120|241:112,1,90,2|0
188,234,26229,2,8,B|227:274|280:280,1,90,2|8
256,192,26563,1,0
176,144,26729,5,2
328,240,26896,1,2
176,144,27063,1,2
328,240,27229,1,2
344,328,27396,5,4
256,344,27563,2,0,B|144:328,1,90,0|8
104,272,27896,1,0
40,208,28063,2,0,B|80:104,2,90,0|0|8
128,192,28563,6,8,B|224:192,1,90,2|0
384,192,28896,2,0,B|288:192,1,90,2|0
256,32,29229,2,0,B|256:136,1,90,2|0
256,256,29563,5,2
189,139,29729,1,2
324,139,29896,1,2
189,139,30063,5,4
152,56,30229,2,0,B|104:88|96:136,2,90,0|8|0
189,139,30729,2,0,B|160:200|120:216,2,90,0|0|8
256,80,31229,6,0,B|256:200,1,90,2|0
148,272,31563,2,0,B|168:288|232:304,1,90,2|8
365,276,31896,2,8,B|336:288|280:304,1,90,2|0
136,208,32229,5,2
257,148,32396,1,10
375,212,32563,1,2
257,148,32729,6,0,B|224:96|184:88,1,90,0|0
104,96,33063,2,0,B|88:160|64:200,1,90,10|2
56,272,33396,2,0,B|112:304|160:312,2,90,0|0|10
136,224,33896,1,2
211,173,34063,1,0
301,173,34229,1,0
368,232,34396,1,10
440,288,34563,2,0,B|400:320|336:320,2,90,2|0|0
472,208,35063,5,10
416,136,35229,1,2
333,170,35396,2,0,B|277:138|269:98,2,90,0|0|10
344,80,35896,1,2
280,16,36063,1,0
189,16,36229,1,0
125,79,36396,1,10
210,107,36563,6,0,B|192:152|136:168,1,90,2|0
302,277,36896,2,0,B|320:232|376:216,1,90,2|8
302,107,37229,2,0,B|320:152|376:168,1,90,2|0
210,277,37563,2,2,B|192:232|136:216,1,90,2|8
56,192,37896,1,2
56,101,38063,6,0,B|69:41|128:28|187:48|194:114,2,180,0|8|0
128,152,38896,1,0
96,288,39063,1,8
192,192,39229,2,0,B|152:224|88:224,2,90
184,280,39730,2,0,B|224:320|264:336,1,90,8|0
264,240,40063,5,0
368,152,40230,1,2
344,288,40396,1,10
288,168,40563,1,2
408,224,40730,2,0,B|448:176|448:136,2,90,4|0|8
344,288,41230,2,0,B|264:240|160:232,1,180
96,192,41730,1,8
165,120,41896,6,0,B|173:56|229:32,1,90
256,120,42230,1,0
345,120,42396,2,0,B|337:56|281:32,1,90,8|0
256,120,42730,1,0
190,182,42896,5,8
255,302,43063,1,8
319,183,43230,1,8
352,264,43396,6,0,B|392:240|408:192,2,90,4|0|8
312,344,43896,1,0
224,336,44063,2,0,B|144:272,1,90
153,279,44396,1,8
106,201,44563,6,0,B|106:121|138:89,1,90,2|8
202,9,44896,2,0,B|258:-7|322:1,1,90,2|8
410,65,45230,2,10,B|431:90|446:146,1,90
323,186,45563,5,2
257,303,45730,1,2
190,185,45896,1,2
160,88,46063,6,0,B|96:112|40:200,1,134.999995976687,6|0
56,240,46563,1,2
68,306,46730,2,0,B|128:296|128:240,1,67.4999979883433
152,208,47063,2,2,B|200:224|224:248,1,67.4999979883433
208,304,47396,6,0,B|368:304,1,134.999995976687,0|2
432,200,48063,2,0,B|280:200,1,134.999995976687,0|2
161,200,48730,1,2
186,67,49063,1,2
320,67,49396,1,2
353,198,49730,1,2
256,288,50063,2,2,B|256:368,2,67.4999979883433
256,212,50563,6,0,B|276:181|235:160|261:113,1,90,0|2
255,112,50980,1,0
255,98,51063,1,0
248,86,51146,1,0
242,73,51230,1,2
234,61,51313,1,0
224,51,51396,6,4,B|166:61|132:81,1,90,4|0
138,168,51730,1,10
138,168,51896,1,2
228,168,52063,2,0,B|284:179|324:207,1,90,4|0
392,239,52396,1,10
392,239,52563,1,2
256,352,52896,6,2,B|168:320,2,90,2|10|2
331,303,53396,1,0
254,255,53563,1,2
210,176,53730,1,10
299,176,53896,1,2
256,192,54063,12,4,55063
160,56,55396,6,6,B|104:72|64:104,1,90
14,157,55730,1,0
77,220,55896,1,0
136,288,56063,2,0,B|168:240|152:184,1,90
224,144,56396,5,6
319,48,56563,1,6
408,48,56730,6,0,B|432:96|472:112,1,90
472,200,57063,2,0,B|416:212|377:244,1,90
376,144,57396,5,0
258,77,57563,1,0
139,142,57730,1,0
424,320,58063,6,6,B|368:272|320:272,1,90,6|6
304,192,58396,1,0
213,192,58563,1,0
165,275,58730,2,0,B|143:271|87:319,1,90
47,239,59063,1,6
124,192,59230,1,6
34,192,59396,5,2
472,192,59730,1,2
34,192,60063,1,6
416,80,60396,5,0
396,60,60480,1,0
369,53,60563,1,0
344,64,60646,1,0
318,72,60730,6,0,B|280:112|224:120,1,90,4|0
200,40,61063,2,0,B|144:56|112:80,2,90,8|0|0
176,128,61563,5,0
65,205,61730,1,8
182,270,61896,1,0
128,144,62063,5,0
24,232,62230,1,0
144,296,62396,1,8
230,321,62563,2,0,B|361:321,1,90
392,272,62896,5,2
392,91,63063,1,6
104,200,63396,6,0,B|56:144|56:112,2,90,4|0|8
145,120,63896,2,0,B|132:65|156:27,1,90
240,32,64230,1,0
327,50,64396,1,8
390,113,64563,1,0
453,176,64730,1,2
366,197,64896,5,2
256,276,65063,1,10
150,194,65230,1,2
256,112,65396,1,2
256,139,65480,1,2
256,165,65563,1,2
256,191,65646,1,2
256,217,65730,2,10,B|208:256|160:272,1,90,10|2
105,315,66063,5,4
56,240,66230,1,0
80,152,66396,2,0,B|120:120|176:120,2,90,8|0|0
40,72,66896,5,0
167,26,67063,1,8
296,62,67230,1,0
408,144,67396,5,2
282,94,67563,1,2
158,146,67730,1,8
283,196,67896,1,0
410,241,68063,1,2
283,287,68230,1,2
157,236,68396,1,8
283,196,68563,1,0
158,146,68730,6,0,B|176:88|216:64,1,90,0|2
354,238,69063,2,0,B|336:296|296:320,1,90,12|0
354,146,69396,2,8,B|336:88|296:64,1,90,0|2
158,238,69730,2,0,B|176:296|216:320,1,90,12|0
256,368,70063,5,2
256,8,70396,1,2
256,368,70730,1,6
256,184,71063,5,10
210,106,71230,1,2
300,106,71396,1,6
256,184,71563,2,0,B|224:232|176:248,1,90,0|8
163,156,71896,2,0,B|123:116|75:100,1,90
66,192,72230,5,0
70,285,72396,1,8
146,233,72563,1,0
146,322,72730,5,2
267,351,72896,1,2
226,233,73063,1,10
226,143,73230,2,0,B|239:94|287:70,1,90,2|0
359,42,73563,5,2
440,201,73730,1,14
192,48,74063,6,0,B|120:48|88:56,1,90,4|0
38,116,74396,1,8
101,179,74563,2,0,B|118:184|190:184,1,90
248,112,74896,2,0,B|312:96|368:120,2,90,0|8|0
281,195,75396,5,2
344,314,75563,1,2
220,260,75730,1,10
353,236,75896,1,2
256,328,76063,5,2
446,137,76396,1,8
404,56,76563,1,2
314,56,76730,1,6
224,56,76896,6,0,B|111:56,1,90,0|8
98,138,77230,1,0
184,164,77396,1,0
215,248,77563,2,0,B|172:276|116:260,2,90,0|8|0
278,184,78063,6,10,B|321:156|377:172,1,90,2|2
459,264,78396,2,10,B|416:292|360:276,1,90,10|2
281,123,78729,2,8,B|334:88|403:108,2,90,2|2|10
224,304,79229,5,2
160,240,79396,1,6
160,149,79563,1,6
223,85,79729,1,0
288,304,79896,5,0
352,240,80063,1,6
352,149,80229,1,6
289,85,80396,1,2
256,168,80563,1,0
256,257,80729,5,6
16,192,81063,1,6
488,192,81396,1,6
256,32,81729,6,0,B|256:96,1,45,4|0
184,192,82063,6,0,B|120:168|88:136,2,90,6|6|0
256,248,82563,1,0
328,192,82729,2,0,B|392:168|424:136,2,90,6|6|0
256,144,83229,2,8,B|256:56,1,90,0|6
168,88,83563,2,0,B|104:56|56:64,1,90,6|0
104,152,83896,5,2
40,272,84063,1,6
144,184,84229,1,6
72,296,84396,1,2
176,208,84563,5,2
101,319,84729,2,12,B|160:336|224:328,1,90,4|4
411,319,85063,2,0,B|352:336|288:328,1,90,0|0
256,264,85396,5,6
144,192,85563,1,6
256,112,85729,1,2
368,192,85896,1,6
256,23,86229,6,12,B|256:119,1,90,4|4
256,264,86729,1,2
256,264,86813,1,2
256,264,86896,1,2
256,264,86979,1,2
256,264,87063,2,8,B|256:322,1,45,4|0
256,192,95396,12,0,97396
256,192,97729,5,4
392,144,98063,6,0,B|432:120|448:64,1,90,0|0
352,72,98396,2,0,B|296:40|256:40,1,90,8|0
288,128,98729,2,0,B|296:192|336:224,1,90
408,208,99063,1,8
488,248,99229,2,0,B|448:328,1,90
360,360,99563,1,0
296,296,99729,1,8
233,360,99896,5,0
128,280,100063,1,0
248,224,100229,1,2
176,336,100396,1,2
72,248,100563,1,2
200,200,100729,6,0,B|216:144|200:104,1,90,4|0
128,160,101063,1,8
128,72,101229,2,0,B|176:32|240:40,2,90
56,128,101729,1,8
128,160,101896,6,0,B|184:208|224:216,1,90,2|0
376,232,102229,2,0,B|328:272|296:288,1,90,2|8
213,285,102563,1,2
256,360,102729,5,2
256,225,102896,1,2
256,91,103063,1,10
256,87,103146,1,2
256,83,103229,1,2
256,79,103313,1,2
256,75,103396,6,0,B|368:48,1,90,4|0
475,88,103729,2,0,B|355:120,1,90,8|0
293,207,104063,2,0,B|392:184,1,90
469,209,104396,2,0,B|429:273|381:281,2,90,8|0|0
382,186,104896,1,0
304,144,105063,1,8
214,144,105229,5,0
97,213,105396,1,0
214,280,105563,1,2
214,144,105729,5,10
349,144,105896,1,2
349,278,106063,2,0,B|443:278,1,90,6|0
304,280,106396,2,0,B|208:280,1,90,8|0
97,213,106729,2,0,B|128:160|184:144,2,90,0|0|8
184,224,107229,6,0,B|216:264|271:272,1,90
324,150,107563,2,0,B|285:110|232:104,1,90,0|8
256,192,107896,1,0
336,240,108063,5,2
184,144,108229,1,2
336,240,108396,1,2
184,144,108563,1,2
168,56,108729,5,6
256,40,108896,2,0,B|368:56,1,90,0|8
408,112,109229,1,0
472,176,109396,2,0,B|432:280,2,90,0|0|8
384,192,109896,6,8,B|288:192,1,90,2|0
128,192,110229,2,8,B|224:192,1,90,2|8
256,352,110563,2,2,B|256:248,1,90,2|2
256,128,110896,5,2
323,245,111063,1,2
188,245,111229,1,2
323,245,111396,5,4
360,328,111563,2,0,B|408:296|416:248,2,90,0|8|0
323,245,112063,2,0,B|352:184|392:168,2,90,0|0|8
256,304,112563,6,0,B|256:184,1,90,2|0
364,112,112896,2,0,B|344:96|280:80,1,90,2|0
120,160,113229,2,0,B|149:148|205:132,1,90,2|2
376,176,113563,5,2
255,236,113729,1,2
137,172,113896,1,2
255,236,114063,6,0,B|288:288|328:296,1,90,0|0
408,288,114396,2,0,B|424:224|448:184,1,90,10|2
456,112,114729,2,0,B|400:80|352:72,2,90,0|0|10
376,160,115229,1,2
301,211,115396,1,0
211,211,115563,1,0
144,152,115729,1,10
72,96,115896,2,0,B|112:64|176:64,2,90,2|0|0
40,176,116396,5,10
96,248,116563,1,2
179,214,116729,2,0,B|235:246|243:286,2,90,0|0|10
168,304,117229,1,2
232,368,117396,1,0
323,368,117563,1,0
387,305,117729,1,10
302,277,117896,6,0,B|320:232|376:216,1,90,2|0
210,107,118229,2,2,B|192:152|136:168,1,90,2|8
210,277,118563,2,0,B|192:232|136:216,1,90,2|0
302,107,118896,2,2,B|320:152|376:168,1,90,2|8
456,192,119229,1,2
456,283,119396,6,0,B|443:343|384:356|325:336|318:270,2,180,0|8|0
384,232,120229,1,0
416,96,120396,1,8
320,192,120563,2,0,B|360:160|424:160,2,90
328,104,121063,2,0,B|288:64|248:48,1,90,8|0
248,144,121396,5,0
144,232,121563,1,2
168,96,121729,1,2
224,216,121896,1,2
104,160,122063,2,0,B|64:208|64:248,2,90,4|0|0
168,96,122563,2,0,B|248:144|352:152,1,180
416,192,123063,1,8
347,264,123229,6,8,B|339:328|283:352,1,90,0|0
256,264,123563,1,2
167,264,123729,2,2,B|175:328|231:352,1,90,8|0
256,264,124063,1,0
322,202,124229,5,2
257,82,124396,1,10
193,201,124563,1,2
160,120,124729,6,0,B|120:144|104:192,2,90,4|0|8
200,40,125229,1,0
288,48,125396,2,0,B|368:112,1,90
359,105,125729,1,8
406,183,125896,6,0,B|406:263|374:295,1,90,2|8
310,375,126229,2,0,B|254:391|190:383,1,90,2|8
102,319,126563,2,0,B|81:294|66:238,1,90,10|8
189,198,126896,5,2
255,81,127063,1,2
322,199,127229,1,2
352,296,127396,6,0,B|416:272|472:184,1,134.999995976687,0|2
456,144,127896,1,0
444,78,128063,2,2,B|384:88|384:144,1,67.4999979883433
360,176,128396,2,2,B|312:160|288:136,1,67.4999979883433
304,80,128729,6,0,B|144:80,1,134.999995976687,0|2
80,184,129396,2,0,B|232:184,1,134.999995976687,0|2
351,184,130063,1,2
326,317,130396,1,2
192,317,130729,1,2
159,186,131063,1,2
256,96,131396,2,2,B|256:16,2,67.4999979883433
256,172,131896,6,0,B|236:203|277:224|251:271,1,90,0|2
257,272,132313,1,0
257,286,132396,1,0
264,298,132479,1,0
270,311,132563,1,2
278,323,132646,1,0
288,333,132729,6,0,B|346:323|380:303,1,90,4|2
374,216,133063,1,10
374,216,133229,1,2
284,216,133396,2,0,B|228:205|188:177,1,90,4|2
120,145,133729,1,10
120,145,133896,1,2
256,32,134229,6,0,B|344:64,2,90,2|0|2
181,81,134729,1,2
258,129,134896,1,2
302,208,135063,1,2
213,208,135229,1,2
256,192,135396,12,4,136396
80,192,136729,5,6
80,192,136896,1,2
416,192,137729,1,6
416,192,137896,1,2
256,24,138729,5,2
256,112,138896,1,2
256,200,139063,2,0,B|256:240,7,22.5
256,200,139396,1,6
256,200,139563,1,2
256,360,140396,5,6
256,360,140563,1,2
256,360,140729,5,2
72,48,141063,1,2
431,48,141396,1,6
256,128,141729,5,2
215,208,141896,1,2
305,208,142063,1,6
351,131,142229,2,0,B|392:168|407:227,1,90,0|8
448,282,142563,2,0,B|403:291|358:286,1,90
268,286,142896,5,0
136,318,143063,1,8
268,286,143229,1,0
172,190,143396,5,0
76,94,143563,1,2
199,147,143729,1,10
63,147,143896,1,2
185,90,144063,2,2,B|234:78|282:94,1,90,0|2
401,219,144396,2,0,B|352:231|304:215,1,90,8|2
112,288,144729,6,0,B|64:248|56:200,2,90,4|0|8
202,288,145229,2,0,B|234:328|290:336,1,90
277,243,145563,5,2
277,108,145729,1,10
397,169,145896,1,2
397,304,146063,1,2
352,240,146229,5,2
352,104,146396,1,10
238,177,146563,1,2
103,177,146729,2,0,B|103:78,2,90,2|2|10
103,208,147146,1,2
110,238,147229,1,2
123,266,147313,1,2
137,293,147396,5,6
200,356,147563,2,0,B|251:336|283:296,1,90,0|8
275,216,147896,2,0,B|307:176|363:168,1,90
355,264,148229,2,0,B|379:304|427:328,2,90,0|8|0
435,224,148729,5,2
435,224,148896,1,2
75,224,149229,1,6
75,133,149396,5,2
75,133,149563,1,2
434,133,149896,1,6
360,40,150063,6,0,B|312:24|240:24,1,90,2|0
112,109,150396,2,0,B|160:93|232:93,1,90,2|2
371,152,150729,2,2,B|323:136|251:136,1,90,2|0
123,221,151063,2,0,B|171:205|243:205,1,90,2|2
384,264,151396,2,12,B|320:304|208:312,2,180,6|6|6
256,72,152396,5,2
323,189,152563,1,2
189,189,152729,1,6
256,144,152896,5,0
323,261,153063,1,8
189,261,153229,2,0,B|136:256|120:200,1,90
64,136,153563,2,0,B|72:80|120:64,2,90,0|8|0
31,220,154063,5,8
31,220,154229,1,8
255,370,154563,1,4
481,220,154896,1,8
481,220,155063,1,12
256,72,155396,6,0,B|288:112|336:128,2,90,12|0|8
164,50,155896,1,0
104,120,156063,1,0
136,208,156229,1,0
192,136,156396,1,8
192,136,156563,1,0
224,216,156729,6,0,B|208:272|144:296,1,90,2|2
288,216,157063,2,0,B|304:272|368:296,1,90,10|2
257,313,157396,5,2
257,177,157563,1,2
322,59,157730,1,10
186,59,157896,1,2
321,59,158063,1,6
242,102,158230,6,0,B|216:144|144:144,1,90,0|8
301,142,158563,2,0,B|320:192|352:216,1,90
437,240,158896,2,0,B|405:304|357:312,2,90,0|8|0
438,151,159396,5,2
438,151,159563,1,2
78,151,159896,1,6
78,241,160063,5,2
78,241,160230,1,2
438,241,160563,1,6
424,328,160730,5,6
333,328,160896,2,8,B|277:322|253:282,1,90,6|0
256,196,161230,1,0
192,132,161396,1,6
255,68,161563,1,6
318,131,161730,1,0
255,196,161896,1,0
256,344,162063,5,6
75,33,162396,1,6
434,33,162730,1,6
