osu file format v9

[General]
AudioFilename: kirame.mp3
AudioLeadIn: 2353
PreviewTime: 60387
Countdown: 0
SampleSet: Soft
StackLeniency: 0.7
Mode: 0
LetterboxInBreaks: 1

[Editor]
Bookmarks: 98054
DistanceSpacing: 0.8
BeatDivisor: 4
GridSize: 8

[Metadata]
Title:Kirame Kirari
Artist:Takatsuki Yayoi
Creator:val0108
Version:Easy
Source:Idolmaster
Tags:yura

[Difficulty]
HPDrainRate:2
CircleSize:3
OverallDifficulty:2
ApproachRate:3
SliderMultiplier:0.7
SliderTickRate:1

[Events]
//Background and Video events
0,0,"kiramekirari.jpg"
//Break Periods
2,5929,14956
2,27596,31289
2,86929,96623
2,108929,112623
//Storyboard Layer 0 (Background)
//Storyboard Layer 1 (Fail)
//Storyboard Layer 2 (Pass)
//Storyboard Layer 3 (Foreground)
//Storyboard Sound Samples
//Background Colour Transformations
3,100,163,162,255

[TimingPoints]
730,333.333333333333,4,2,2,100,1,0
32646,-100,4,2,1,100,0,0
37979,-100,4,2,2,100,0,0
46063,-133.333333333333,4,2,2,84,0,0
51396,-100,4,2,2,100,0,0
60729,-100,4,2,2,100,0,1
68729,-100,4,2,2,100,0,0
71396,-100,4,2,2,100,0,1
79396,-100,4,2,2,100,0,0
81729,-100,4,2,2,100,0,1
81813,-100,4,2,2,100,0,0
113979,-100,4,2,1,100,0,0
119313,-100,4,2,2,100,0,0
127396,-133.333333333333,4,2,2,83,0,0
132729,-100,4,2,2,100,0,0
142063,-100,4,2,2,100,0,1
150063,-100,4,2,2,100,0,0
152729,-100,4,2,2,100,0,1
153979,-100,4,2,0,100,0,1
155313,-100,4,2,2,100,0,1
162720,-100,4,2,2,100,0,0

[Colours]
Combo1 : 240,5,5
Combo2 : 255,128,0
Combo3 : 255,128,255

[HitObjects]
256,272,730,1,6
176,192,1396,1,4
255,112,2063,1,6
334,191,2729,1,6
254,270,3396,5,6
144,272,4063,2,0,B|24:272,1,105,4|6
39,215,4896,2,0,B|39:159|98:112,1,105,6|4
140,123,5729,1,2
256,192,16396,5,2
256,136,16730,6,0,B|256:56|384:56,1,140
409,57,17730,1,8
409,113,18063,2,0,B|409:273,1,140
409,309,19063,1,8
353,309,19396,2,0,B|265:309,1,70
283,309,19896,1,6
256,200,20563,6,0,B|274:160|226:112|274:80,1,105,0|2
257,41,21396,1,0
257,41,21729,1,10
200,41,22063,6,0,B|128:41|40:88,1,140,4|0
65,131,23063,1,8
104,170,23396,2,0,B|184:170|240:242,1,140
187,266,24396,1,8
215,314,24729,2,0,B|347:314,1,105,0|2
256,192,25896,12,4,27396
192,336,32729,6,0,B|184:256|88:208,1,140,4|0
72,192,33729,1,2
88,136,34063,2,0,B|104:88|168:144|216:88,1,140
256,56,35063,1,2
311,56,35396,2,0,B|423:56,1,105,0|2
416,168,36563,6,0,B|384:136|320:128,1,105
281,167,37396,2,2,B|248:184|192:192,1,70
158,188,38063,5,2
62,246,38729,1,8
160,304,39396,1,2
272,304,40063,1,8
383,304,40730,2,0,B|424:248|432:200,1,105,0|6
256,192,41896,12,4,43396
96,104,46063,6,0,B|144:48|248:48,1,157.499995306134,0|2
280,48,47396,2,0,B|374:47|422:103,1,157.499995306134,0|2
421,145,48730,5,2
336,145,49396,1,2
251,145,50063,2,0,B|191:145,1,52.4999984353781,2|4
198,186,50730,2,0,B|262:186,1,52.4999984353781,2|4
256,240,51396,5,6
256,352,52063,1,2
160,296,52730,1,2
160,183,53396,1,2
256,192,54063,12,4,55396
208,192,56396,6,6,B|160:192,1,35
256,80,57396,1,2
288,192,58063,2,6,B|352:192,1,35
256,320,59063,1,6
256,264,59396,5,2
256,208,59730,1,2
256,151,60063,1,2
168,80,60730,6,0,B|96:80|48:160,1,140,4|0
54,206,61730,1,8
54,262,62063,2,0,B|95:332|167:332,1,140
223,332,63063,1,10
223,276,63396,5,4
335,276,64063,1,0
335,164,64730,1,2
304,120,65063,1,2
256,96,65396,1,2
256,208,66063,6,0,B|304:272|376:288,1,140,4|0
424,286,67063,1,8
424,230,67396,2,0,B|432:184|424:144,1,70,0|10
384,128,68063,2,0,B|376:88|400:48,1,70,0|10
353,20,68730,5,6
273,99,69396,1,2
178,158,70063,2,0,B|154:158|130:174|154:190|186:190,2,70,6|4|6
257,237,71396,5,4
360,288,72063,1,10
256,328,72730,1,2
152,288,73396,1,8
80,200,74063,6,0,B|80:112|232:160|232:64,1,210,4|8
287,77,75396,2,0,B|285:159|437:111|437:199,1,210,4|8
449,250,76730,5,4
360,320,77396,1,8
360,207,78063,2,0,B|307:194|264:158,1,105,6|0
239,160,78729,2,0,B|198:194|145:206,1,105,6|0
117,206,79396,5,6
176,304,80063,1,6
256,224,80729,2,0,B|280:264|304:272,2,70,0|2|6
256,167,81729,1,2
256,110,82063,5,6
152,80,82729,1,6
256,40,83396,1,6
360,80,84063,1,6
360,191,84729,6,0,B|320:272|184:272|160:184,1,245,4|2
160,136,86229,2,6,B|224:136,1,35
251,136,86729,1,6
116,136,98063,6,0,B|60:160|60:224|132:256,1,140,4|0
167,245,99063,1,8
222,245,99396,2,0,B|382:245,1,140
418,245,100396,1,8
418,189,100729,6,0,B|408:144|320:104,1,105,4|2
242,160,101896,2,0,B|256:216|304:272,1,105,0|2
288,309,102729,2,2,B|208:309,1,70
161,309,103396,5,4
62,256,104063,1,8
62,144,104729,1,0
160,96,105396,1,8
160,208,106063,2,0,B|280:208,1,105,0|6
256,192,107229,12,4,108729
320,48,114063,6,0,B|328:128|424:176,1,140,0|0
440,192,115063,1,2
424,248,115396,2,0,B|408:296|344:240|296:296,1,140
256,328,116396,1,2
201,328,116729,2,0,B|89:328,1,105,0|4
96,216,117896,6,0,B|128:248|192:256,1,105,0|2
231,217,118729,2,2,B|264:200|320:192,1,70
354,196,119396,5,2
450,138,120063,1,8
352,80,120729,1,2
240,80,121396,1,8
129,80,122063,2,2,B|88:136|80:184,1,105,2|6
256,192,123229,12,4,124729
416,280,127396,6,0,B|368:336|264:336,1,157.499995306134,4|2
232,336,128729,2,0,B|138:337|90:281,1,157.499995306134,4|2
91,239,130063,5,2
176,239,130729,1,2
261,239,131396,2,0,B|321:239,1,52.4999984353781,2|4
314,198,132063,2,0,B|250:198,1,52.4999984353781,2|4
256,144,132729,5,0
256,32,133396,1,2
352,88,134063,1,0
352,201,134729,1,2
256,192,135396,12,4,136729
304,192,137729,6,6,B|352:192,1,35
256,304,138729,1,2
224,192,139396,2,6,B|160:192,1,35
256,69,140396,1,6
256,125,140729,5,4
256,181,141063,1,4
256,238,141396,1,4
176,312,142063,6,0,B|96:312|96:216,1,140,4|0
96,162,143063,1,8
96,106,143396,1,2
208,106,144063,1,4
208,217,144729,6,0,B|280:232|256:312|392:336,1,210,4|2
416,293,146063,2,0,B|358:248|415:187|316:115,1,210,4|2
260,115,147396,5,4
344,40,148063,1,8
260,115,148729,1,0
176,40,149396,1,8
176,152,150063,5,0
256,232,150729,1,8
336,152,151396,1,6
391,152,151729,1,6
447,152,152063,1,6
392,248,152729,6,0,B|352:312|248:320,1,140,4|0
257,263,153729,1,8
200,264,154063,2,0,B|88:264,1,105,8|2
95,207,154896,2,8,B|95:159,1,35
96,120,155396,6,0,B|144:80|224:56,1,140,4|0
259,96,156396,1,8
259,151,156729,2,0,B|312:216|400:216,1,140
435,215,157730,1,8
435,158,158063,5,4
355,78,158730,1,2
256,24,159396,1,8
143,24,160063,1,2
115,132,160730,5,6
115,244,161396,1,6
216,192,162063,1,6
271,192,162396,1,6
326,192,162730,1,6
