osu file format v5

[General]
AudioFilename: 01 - Great Teacher Onizuka Drama Soundtrack 1 Track01.mp3
AudioLeadIn: 0
PreviewTime: 58958
Countdown: 1
SampleSet: Soft
StackLeniency: 0.7
Mode: 0
LetterboxInBreaks: 1

[Metadata]
Title:Poison
Artist:Takashi Sorimachi
Creator:Real1
Version:Trainee
Source:Great Teacher Onizuka - Live Action
Tags:

[Difficulty]
HPDrainRate:4
CircleSize:4
OverallDifficulty:3
SliderMultiplier:1.4
SliderTickRate:1

[Events]
//Background and Video events
0,0,"vlcsnap328091xw4.png"
//Break Periods
2,43032,45087
2,56942,58128
2,84545,90295
2,102193,104367
2,115668,117266
//Storyboard Layer 0 (Background)
//Storyboard Layer 1 (Failing)
//Storyboard Layer 2 (Passing)
//Storyboard Layer 3 (Foreground)
//Storyboard Sound Samples
//Background Colour Transformations
3,100,98,96,94

[TimingPoints]
18495,434.782608695652,4,1,0,100,1
32400,-100,4,2,0,100,0
58916,-100,4,1,0,100,0
91083,-100,4,2,0,100,0
117599,-100,4,1,0,100,0

[Colours]
Combo1 : 184,112,112
Combo2 : 58,58,58
Combo3 : 226,226,226

[HitObjects]
80,56,18494,1,0
192,56,18929,1,2
304,56,19364,1,0
424,56,19799,1,2
424,168,20234,1,0
304,168,20668,1,2
192,168,21103,1,4
392,56,21973,6,0,B|392:344,1,280
224,320,23494,6,2,B|440:24,1,350
480,256,25451,6,4,B|416:304|232:392|88:264,1,420
184,200,27190,2,0,B|272:200,4,70
376,80,28929,6,2,B|104:8|144:112,1,280
144,216,30234,2,0,B|216:216,6,70
152,112,31973,5,4
304,48,32625,6,0,B|440:264,1,210
256,288,33929,2,2,B|176:288,5,70
48,40,36103,6,0,B|400:40,1,280
328,152,37408,2,2,B|224:152,6,70
160,184,39364,5,0
272,184,39799,1,8
384,184,40234,1,0
384,72,40668,1,8
272,72,41103,1,0
160,72,41538,1,8
64,128,41973,2,4,B|40:272|216:352,1,280
432,56,46538,6,0,B|232:264,1,280
128,256,47842,2,2,B|128:184,6,70
72,40,50016,6,0,B|128:88,1,70
208,160,50668,1,8
328,88,51103,1,0
328,200,51538,1,8
208,160,51973,1,0
88,200,52408,1,12
256,192,52842,12,4,56755
64,64,59581,6,2,B|280:64,1,210
384,64,60668,1,0
384,176,61103,1,8
384,288,61538,1,0
272,288,61973,1,8
160,288,62408,1,0
160,176,62842,1,8
272,176,63277,1,0
384,176,63712,1,4
224,80,65016,6,4,B|304:80,1,70
48,312,66538,6,0,B|184:312,1,70
232,304,67190,1,0
344,304,67625,1,0
456,304,68060,2,8,B|456:168,1,70
456,120,68712,6,0,B|384:120,8,70
104,136,71755,6,8,B|192:136,2,70
80,56,73494,6,2,B|296:160,1,210
360,208,74581,1,8
448,280,75016,1,8
336,280,75451,2,0,B|264:280,3,70
128,120,76973,6,8,B|224:120,2,70
128,232,77842,2,8,B|200:232,2,70
208,152,78712,2,8,B|208:80,2,70
88,144,80451,6,2,B|160:144,2,70
144,240,81321,2,2,B|144:320,2,70
456,296,82625,6,4,B|488:64|-32:336|136:296|56:24,1,560
80,176,91755,6,4,B|296:48|480:176,1,420
456,312,93494,2,6,B|112:312,1,280
88,64,95234,6,0,B|304:64,1,210
408,64,96321,1,8
408,176,96755,1,0
296,176,97190,1,8
184,176,97625,2,2,B|112:176,1,70
304,96,98712,6,0,B|232:96,1,70
96,96,99364,1,2
120,200,99799,1,0
200,272,100234,1,2
312,280,100668,1,0
424,280,101103,2,2,B|424:136,2,140
464,296,105668,6,2,B|256:208,1,210
168,168,106755,1,8
256,104,107190,1,8
368,104,107625,1,8
480,104,108060,2,4,B|480:200,1,70
368,192,108929,5,8
256,192,109364,1,8
312,96,109799,1,8
312,208,110234,1,0
200,208,110668,1,2
88,208,111103,1,2
88,96,111538,2,4,B|160:96,1,70
384,88,112625,6,2,B|96:320,1,350
216,336,114147,2,2,B|488:232,1,280
480,96,115451,1,4
408,192,118712,6,0,B|328:192,1,70
224,192,119364,1,8
224,80,119799,1,8
336,80,120234,1,8
224,80,120668,1,8
112,80,121103,1,8
224,80,121538,1,8
336,80,121973,2,4,B|336:152,3,70
232,192,124147,6,4,B|312:192,1,70
456,56,125668,6,2,B|144:240,1,350
40,248,127190,1,0
40,136,127625,1,0
152,136,128060,1,4
280,144,128494,6,0,B|368:144,5,70
424,272,130886,6,4,B|264:328,1,140
80,88,132625,6,2,B|256:136|464:88,1,350
432,208,134147,2,0,B|432:280,5,70
472,56,136103,6,2,B|240:328|80:0|48:288,1,490
152,296,138060,2,4,B|224:296,2,70
384,144,139581,6,0,B|240:144,1,140
128,144,140451,2,0,B|56:144,2,70
256,192,141321,12,4,143712
