osu file format v5

[General]
AudioFilename: 01 - Great Teacher Onizuka Drama Soundtrack 1 Track01.mp3
AudioLeadIn: 0
PreviewTime: 58958
Countdown: 1
SampleSet: Normal
StackLeniency: 0.7
Mode: 0
LetterboxInBreaks: 1

[Metadata]
Title:Poison
Artist:Takashi Sorimachi
Creator:Real1
Version:Onizuka
Source:Great Teacher Onizuka - Live Action
Tags:

[Difficulty]
HPDrainRate:7
CircleSize:5
OverallDifficulty:6
SliderMultiplier:1.5
SliderTickRate:2

[Events]
//Background and Video events
0,0,"vlcsnap328091xw4.png"
//Break Periods
2,84776,90700
2,164331,169549
//Storyboard Layer 0 (Background)
//Storyboard Layer 1 (Failing)
//Storyboard Layer 2 (Passing)
//Storyboard Layer 3 (Foreground)
//Storyboard Sound Samples
//Background Colour Transformations
3,100,98,96,94

[TimingPoints]
18495,434.782608695652,4,1,0,100,1
32400,-100,4,2,0,100,0
56742,-100,4,1,0,100,0
90648,-100,4,2,0,100,0
115860,-100,4,1,0,100,0
117674,-100,4,1,0,21,0
117945,-100,4,1,0,30,0
118162,-100,4,1,0,43,0
118325,-100,4,1,0,51,0
118488,-100,4,1,0,60,0
118596,-100,4,1,0,71,0
118704,-100,4,1,0,81,0
118812,-100,4,1,0,91,0
118920,-100,4,1,0,100,0
184033,-100,4,1,0,30,0
184250,-100,4,1,0,49,0
184467,-100,4,1,0,70,0
184684,-100,4,1,0,82,0
184901,-100,4,1,0,100,0

[Colours]
Combo1 : 192,156,152
Combo2 : 82,82,82
Combo3 : 238,238,238

[HitObjects]
256,192,18495,5,0
256,129,18712,1,0
256,192,18929,2,0,B|256:304,1,75
256,328,19364,1,0
408,256,20016,5,0
408,328,20234,1,0
408,256,20451,1,0
408,328,20668,1,0
408,256,20886,1,0
408,256,21103,2,0,B|208:128|408:16,1,300
456,32,22190,5,0
456,32,22408,1,0
456,104,22625,1,0
456,176,22842,2,0,B|456:328,1,150
384,328,23495,2,2,B|304:328,4,75
312,328,24581,1,4
56,48,25451,5,0
128,48,25668,1,0
200,48,25886,1,0
272,48,26103,1,0
344,48,26321,2,0,B|344:208,1,150
274,199,26973,2,0,B|82:199,1,150
124,199,27625,1,0
124,199,27842,1,0
122,271,28060,2,2,B|434:271,1,300
424,200,29147,5,0
352,176,29364,1,0
288,136,29581,1,0
264,64,29799,1,0
400,80,30234,5,0
400,152,30451,1,0
400,224,30668,1,0
400,296,30886,1,0
328,296,31103,1,0
252,296,31321,1,0
176,296,31538,2,0,B|176:160,1,75
306,98,31973,5,4
64,192,32625,5,0
64,192,32842,1,0
136,192,33060,1,0
208,192,33277,1,0
280,192,33495,1,0
280,192,33712,1,0
352,192,33929,1,0
424,192,34147,1,0
424,117,34364,1,2
424,192,34581,1,2
424,267,34799,1,4
349,267,35016,1,4
102,193,35451,5,2
102,193,35668,1,2
232,88,36103,6,0,B|392:88,1,150
382,159,36755,1,0
382,159,36973,1,0
454,159,37190,1,0
454,231,37408,2,0,B|374:231,2,75
454,303,38060,2,2,B|369:303,1,75
303,304,38495,1,4
303,304,38712,1,4
296,160,39147,6,0,B|200:160,1,75
221,160,39581,1,0
221,160,39799,1,0
144,160,40016,1,0
144,88,40234,1,0
144,160,40451,1,0
144,88,40668,1,0
144,160,40886,1,0
144,232,41103,1,0
144,304,41321,1,0
224,304,41538,2,2,B|312:304,1,75
376,304,41973,1,0
450,304,42190,1,0
376,304,42408,2,6,B|376:208,1,75
392,72,43929,5,0
320,72,44147,1,0
392,72,44364,1,0
320,72,44581,1,0
392,72,44799,1,0
320,72,45016,1,0
320,144,45234,2,0,B|120:144,1,150
171,219,45886,2,4,B|387:219,1,150
323,294,46538,6,0,B|483:294,1,150
472,218,47190,1,0
470,142,47408,1,0
445,71,47625,1,0
370,66,47842,1,0
295,74,48060,1,0
237,121,48277,1,0
239,195,48494,2,0,B|351:195,3,75
360,232,49364,6,2,B|360:312,1,75
208,296,50016,5,0
136,296,50234,1,0
72,256,50451,1,0
72,176,50668,1,0
144,152,50886,1,0
88,96,51103,1,0
160,64,51321,1,0
232,80,51538,1,0
296,112,51755,1,0
256,176,51973,1,0
216,240,52190,1,0
216,312,52408,1,4
288,312,52625,1,4
104,104,53494,6,0,B|344:104,1,225
329,104,54364,1,0
329,104,54581,1,0
400,104,54799,1,0
472,104,55016,1,0
472,176,55234,1,0
472,248,55451,1,0
472,320,55668,1,0
400,320,55886,6,4,B|160:320,1,225
312,264,56755,5,0
40,48,57408,1,0
376,64,58060,1,0
192,192,58494,1,0
320,264,58929,5,0
376,208,59147,2,0,B|424:208,5,37.5
296,208,60016,5,0
272,280,60234,1,0
200,280,60451,1,0
120,280,60668,1,0
120,208,60886,2,0,B|120:40,1,150
192,56,61538,2,0,B|368:56,1,150
397,106,62190,1,0
448,160,62408,2,0,B|224:344,1,225
274,302,63277,1,2
274,302,63494,1,2
96,56,65016,5,4
248,56,65234,1,4
432,296,66538,6,0,B|432:208,1,75
432,144,66973,1,0
432,72,67190,2,0,B|344:72,5,75
232,160,68712,5,0
160,168,68929,1,0
232,160,69147,1,0
160,168,69364,1,0
232,160,69581,1,0
160,168,69799,1,0
232,160,70016,1,0
200,232,70234,2,2,B|376:232,1,150
320,192,71755,5,8
320,192,71973,1,8
248,192,72190,1,8
40,320,73494,6,0,B|296:152,1,300
440,168,74799,2,0,B|440:248,6,75
472,320,76973,6,2,B|384:320,1,75
392,248,77408,1,8
64,328,77842,2,2,B|64:248,1,75
64,176,78277,1,8
464,48,78712,2,2,B|464:128,1,75
464,200,79147,1,8
416,112,80451,5,0
341,112,80668,1,0
342,187,80886,2,0,B|430:187,1,75
417,262,81321,2,2,B|337:262,1,75
342,262,81755,1,4
256,192,82625,12,4,84581
80,56,91755,5,0
144,96,91973,1,0
208,56,92190,1,0
272,96,92408,1,0
328,48,92625,1,0
392,88,92842,1,0
440,144,93060,1,0
368,168,93277,1,0
296,184,93494,1,0
224,152,93712,1,0
152,184,93929,2,6,B|152:320,2,75
432,328,95234,6,2,B|352:328,4,75
280,328,96538,5,0
280,328,96755,1,0
280,248,96973,1,0
280,176,97190,1,0
280,104,97408,1,0
216,144,97625,1,0
216,216,97842,2,4,B|120:320,1,75
456,336,98494,5,2
152,328,98929,1,2
304,72,99364,1,2
456,336,99799,1,2
153,328,100234,1,2
304,72,100668,1,2
455,337,101103,1,2
152,329,101538,2,4,B|272:137,1,150
112,96,102408,5,0
264,104,102842,1,0
336,104,103060,1,0
336,104,103277,1,0
336,104,103494,1,0
336,104,103712,1,0
336,104,103929,1,0
336,104,104147,1,0
336,104,104364,1,0
336,104,104581,2,4,B|120:216|336:344,1,300
376,328,105668,6,0,B|456:80,1,225
408,48,106538,1,0
344,88,106755,1,0
288,136,106973,1,0
288,136,107190,1,0
216,152,107408,1,0
216,152,107625,1,0
216,224,107842,2,2,B|312:224,1,75
288,224,108277,1,4
432,312,109147,5,0
384,256,109364,1,0
432,312,109581,1,0
384,256,109799,1,0
360,184,110016,2,0,B|208:184,1,150
136,184,110668,1,0
152,112,110886,1,0
152,112,111103,1,0
224,112,111321,1,0
296,112,111538,1,4
368,112,111755,1,4
56,48,112625,5,0
128,48,112842,1,0
200,48,113060,1,0
200,120,113277,1,0
128,120,113494,1,0
56,120,113712,1,0
128,120,113929,1,0
200,120,114147,1,0
200,48,114364,1,0
125,48,114581,1,0
54,49,114799,1,0
56,120,115016,2,4,B|280:216,1,225
368,296,115886,5,0
112,72,116538,1,0
336,96,116973,1,0
440,144,117190,1,0
440,256,117408,1,0
224,312,117842,5,4
224,312,118060,1,4
224,240,118256,1,0
224,240,118385,1,0
224,240,118494,1,0
224,240,118602,1,0
224,240,118711,1,0
224,240,118820,1,0
224,240,118929,1,4
224,128,119364,6,0,B|392:128,1,150
448,128,120016,1,0
448,200,120234,1,0
448,272,120451,1,0
376,272,120668,1,0
224,272,121103,2,0,B|224:112,1,150
360,64,121973,1,0
360,64,122190,1,0
288,64,122408,1,0
216,80,122625,2,4,B|144:120,1,75
256,192,123712,12,4,124581
424,48,125668,6,0,B|176:184,1,225
136,272,126755,1,0
136,272,126973,2,0,B|248:272,1,75
211,272,127408,1,0
360,280,127842,6,0,B|456:112,1,150
444,75,128494,1,0
376,80,128712,1,0
304,88,128929,1,0
232,104,129147,1,0
184,160,129364,2,4,B|136:232,1,75
196,193,130886,5,2
256,98,131103,1,2
313,194,131321,1,2
448,64,132625,6,0,B|280:64,1,150
296,136,133277,1,0
296,136,133494,1,0
296,208,133712,1,0
296,280,133929,1,0
368,280,134147,1,0
368,205,134364,1,0
296,208,134581,1,0
336,144,134799,1,0
336,144,135016,2,0,B|216:144,1,75
480,344,136103,6,8,B|376:256,1,75
368,248,136538,2,8,B|288:176,1,75
496,112,137408,2,0,B|320:216|352:34,1,225
280,72,138277,2,4,B|280:160,1,75
104,288,139581,5,0
104,288,139799,1,0
104,288,140016,1,0
176,288,140234,1,0
248,288,140451,1,0
320,288,140668,2,0,B|320:80,1,150
448,56,141755,6,0,B|16:8|472:272|424:352|192:352,1,525
192,336,143495,2,4,B|248:280,1,75
256,192,144147,12,4,146755
256,192,147190,12,4,150234
256,192,150668,12,4,153277
256,192,153712,12,0,155451
176,104,156103,5,8
176,104,156212,2,8,B|232:104,1,37.5
280,104,156538,1,2
280,104,156755,1,2
280,104,156973,1,2
280,104,157190,1,2
280,104,157408,1,4
376,104,157625,6,0,B|376:336,1,225
376,104,158929,2,0,B|128:104,1,225
144,328,160234,5,2
368,329,160668,1,8
144,328,161103,1,2
368,329,161538,1,8
257,132,161973,1,2
368,329,162408,1,8
143,328,162842,1,2
257,133,163277,1,8
143,328,163712,1,2
368,329,164147,1,12
32,168,170886,5,0
104,168,171103,1,0
176,168,171321,1,0
240,200,171538,1,0
304,152,171755,1,0
344,216,171973,1,0
392,160,172190,1,0
448,112,172408,1,0
384,72,172625,1,0
312,48,172842,1,0
240,80,173060,1,0
176,120,173277,1,0
144,184,173495,1,0
216,184,173712,1,0
288,184,173929,2,2,B|440:184,1,150
440,256,174581,2,4,B|328:256,1,75
256,192,175886,12,4,176755
40,336,177842,6,0,B|40:144,1,150
40,112,178495,2,0,B|136:112,1,75
192,112,178929,1,0
264,112,179147,1,0
336,112,179364,1,0
264,112,179581,1,0
336,112,179799,1,0
296,176,180016,2,4,B|296:312,1,75
432,320,180668,5,0
360,320,180886,1,0
432,320,181103,1,0
360,320,181321,1,0
432,320,181538,1,0
432,248,181755,1,0
280,224,181973,5,4
344,104,182625,5,4
200,272,183277,5,4
136,136,183712,5,4
80,272,184147,5,0
152,272,184364,1,0
224,272,184581,1,0
296,272,184799,1,0
368,272,185016,1,0
440,272,185234,6,0,B|440:40,1,225
368,48,186103,1,0
292,50,186321,2,0,B|292:362,1,300
217,343,187408,1,0
217,271,187625,1,0
216,200,187842,1,0
145,175,188060,1,0
217,199,188277,1,0
145,175,188495,1,2
153,103,188712,1,2
256,192,189799,12,4,190668
96,272,191755,5,0
152,224,191973,1,2
208,272,192190,1,0
152,320,192408,1,2
96,272,192625,1,0
152,224,192842,1,2
208,272,193060,1,0
152,320,193277,1,2
96,272,193495,1,2
224,344,193929,5,0
296,344,194147,1,0
368,344,194364,1,0
408,288,194581,1,0
440,224,194799,5,0
368,208,195016,1,0
296,200,195234,1,2
240,144,195451,1,2
240,144,195668,1,2
296,96,195886,5,2
296,96,196103,1,0
360,56,196321,1,2
408,112,196538,1,0
360,56,196755,1,2
360,168,196973,5,6
304,264,197190,1,6
256,168,197408,1,6
112,192,198674,5,0
112,192,198782,1,0
112,192,198929,1,0
184,192,199147,1,0
256,192,199364,1,4
432,312,200016,5,0
360,312,200234,1,0
288,312,200451,1,0
288,240,200668,1,0
360,240,200886,1,0
432,240,201103,1,2
432,168,201321,1,2
480,32,202190,6,2,B|400:32,1,75
328,32,202625,1,8
72,184,203060,2,2,B|72:272,1,75
72,336,203495,1,8
368,336,203929,2,2,B|448:336,1,75
440,256,204364,1,8
88,56,205668,5,0
160,56,205886,1,0
232,56,206103,1,0
232,56,206321,1,0
304,56,206538,1,4
376,56,206755,1,4
448,56,206973,1,4
256,192,207625,12,4,209799
