osu file format v9

[General]
AudioFilename: 11 - Poison (Movie Mix).mp3
AudioLeadIn: 0
PreviewTime: 53270
Countdown: 0
SampleSet: Normal
StackLeniency: 0.7
Mode: 0
LetterboxInBreaks: 0

[Editor]
DistanceSpacing: 0.8
BeatDivisor: 4
GridSize: 8

[Metadata]
Title:Poison (Movie Mix)
Artist:Takashi Sorimachi
Creator:Real1
Version:Trainee
Source:GTO The Movie
Tags:great teacher onizuka live action

[Difficulty]
HPDrainRate:1
CircleSize:3
OverallDifficulty:0
ApproachRate:2
SliderMultiplier:1.2
SliderTickRate:1

[Events]
//Background and Video events
0,0,"vlcsnap328091xw4.png"
//Break Periods
2,42598,44750
2,56504,57786
2,84534,89727
2,101699,103850
2,115822,116887
//Storyboard Layer 0 (Background)
//Storyboard Layer 1 (Fail)
//Storyboard Layer 2 (Pass)
//Storyboard Layer 3 (Foreground)
//Storyboard Sound Samples
//Background Colour Transformations
3,100,192,192,192

[TimingPoints]
18280.7672001357,434.562178605055,4,1,0,70,1,0
59357,-100,4,1,0,70,0,1
84442,-100,4,1,0,70,0,0
118424,-100,4,1,0,70,0,1
143543,-100,4,1,0,70,0,0

[Colours]
Combo1 : 255,153,51
Combo2 : 171,167,12
Combo3 : 228,118,90

[HitObjects]
72,48,18279,2,0,B|112:144|112:192|72:304,1,240,0|4
328,72,19801,2,0,B|312:144|312:256|432:344,1,300,0|4
240,192,21757,5,0
120,192,22191,1,8
176,88,22626,1,4
360,88,23278,2,0,B|504:80|504:272|352:280,1,300,0|4
152,192,25233,6,0,B|288:192,1,120,0|8
272,72,26102,2,0,B|136:72,1,120,0|8
32,72,26972,2,0,B|32:200,1,120,0|8
32,312,27841,2,0,B|168:312,1,120,0|12
224,216,28710,2,0,B|384:256|424:112,1,240,0|4
304,96,30013,5,8
192,56,30448,1,0
80,104,30883,1,8
160,192,31317,2,0,B|193:249|221:275|312:312,1,180,2|2
392,232,32404,6,0,B|448:112|352:72|264:144,1,240
176,192,33707,1,0
144,136,33925,1,0
232,56,34359,1,8
328,120,34794,2,2,B|416:120,1,60
192,256,35880,6,0,B|64:256,2,120,0|0|8
256,152,37184,2,0,B|328:120|357:121|456:152,1,180,0|8
336,224,38270,1,2
336,280,38487,1,2
96,304,39357,6,0,B|96:240,1,60
96,120,40008,1,0
216,88,40443,1,8
328,120,40878,1,0
424,192,41312,1,8
424,248,41529,2,0,B|336:248,4,60,0|0|0|2|2
408,48,46310,6,0,B|333:39|288:160|192:32,1,240
112,120,47613,2,0,B|136:192|208:160|256:240,1,180,0|8
368,232,48700,1,2
424,232,48917,1,2
72,56,49786,6,0,B|48:144|120:240|72:320,1,240
200,272,51090,2,0,B|288:168,1,120
336,184,51742,2,0,B|424:288,1,120,8|2
456,320,52393,1,2
312,136,53263,6,0,B|224:48|144:48|48:144,1,300
168,192,54783,1,8
168,248,55001,1,8
288,248,55435,1,8
288,192,55653,1,8
408,192,56087,1,8
408,248,56304,1,8
424,320,59346,6,0,B|296:168,1,180
256,72,60433,1,2
136,72,60867,1,0
192,176,61302,1,2
192,296,61736,6,0,B|320:296,1,120,0|2
376,192,62606,2,0,B|376:64,1,120,0|2
312,72,63257,1,4
80,192,64778,6,4,B|160:192,1,60
472,328,66299,5,2
472,272,66517,1,2
472,216,66734,1,2
472,160,66951,2,0,B|391:146|320:128|144:120,1,300,0|2
88,192,68472,6,0,B|128:320|320:184|488:336,1,420,0|2
467,318,70210,1,2
256,24,71514,6,2,B|256:160,1,120,0|2
64,64,73252,5,4
112,96,73470,2,0,B|248:96,1,120,2|2
384,192,74556,6,0,B|288:104|136:272|304:328,1,300,0|2
48,64,76729,6,0,C|48:200,1,120
168,192,77598,1,2
288,192,78033,1,2
408,192,78467,2,0,C|408:64,1,120
256,192,80205,6,0,B|80:88,1,180
216,64,81292,1,2
272,64,81509,1,2
256,192,82378,12,4,84334
432,192,91287,6,0,B|296:192,1,120,0|8
192,192,92156,2,0,B|192:320,1,120,0|8
72,312,93025,2,0,B|72:168,1,120,0|8
72,72,93894,2,0,B|208:72,1,120,0|12
256,192,94763,5,0
376,192,95198,1,8
376,312,95632,1,0
376,192,96067,1,8
376,72,96501,2,0,B|314:50|232:72,2,120,0|8|0
376,136,97588,1,4
200,192,98457,6,0,B|136:192,1,60,0|8
144,312,99109,2,0,B|224:312,1,60,0|8
328,312,99761,1,0
328,256,99978,1,8
392,152,100413,2,0,B|136:152,1,240,8|2
88,152,101499,1,2
256,192,105410,6,0,B|256:256,1,60,0|8
376,256,106062,2,0,B|397:196|376:128,1,120,0|8
376,256,106931,2,0,B|344:320|264:320,1,120,0|8
376,256,107800,2,0,B|264:200,1,120,0|12
112,104,108886,5,0
112,168,109104,1,8
112,224,109321,1,0
112,280,109538,2,0,B|248:280,1,120,0|8
240,160,110407,2,0,B|240:32,1,120,0|8
344,96,111277,1,2
344,96,111494,1,2
232,192,112363,5,0
288,192,112580,1,8
408,192,113015,1,0
408,72,113449,1,8
288,72,113884,1,0
192,72,114319,1,8
96,80,114753,2,0,B|64:152|64:248|96:344,1,240,0|4
88,64,118447,6,0,B|216:216,1,180
256,312,119533,1,2
376,312,119968,1,0
320,208,120402,1,2
320,88,120837,6,0,B|192:88,1,120,0|2
136,192,121706,2,0,B|136:320,1,120,0|2
200,312,122358,1,4
200,128,123010,1,8
432,192,123879,6,4,B|352:192,1,60
40,56,125400,5,2
40,112,125617,1,2
40,168,125834,1,2
40,232,126052,2,0,B|121:246|192:264|368:272,1,300,0|2
424,192,127573,6,0,B|384:64|192:200|24:48,1,420,2|2
45,66,129311,1,2
88,240,129963,1,8
256,360,130615,6,2,B|256:224,1,120,0|2
448,320,132353,5,4
400,288,132570,2,0,B|264:288,1,120,2|2
128,192,133657,6,0,B|200:280|376:104|224:56,1,300,0|2
464,320,135829,6,0,C|464:184,1,120
344,192,136698,1,2
224,192,137133,1,2
104,192,137568,2,0,C|104:320,1,120
256,192,139306,6,0,B|432:296,1,180
296,320,140392,1,2
240,320,140610,1,2
256,192,141479,12,4,143434
