osu file format v14

[General]
AudioFilename: Difficult Love.mp3
AudioLeadIn: 0
PreviewTime: 144818
Countdown: 0
SampleSet: Soft
StackLeniency: 0.7
Mode: 3
LetterboxInBreaks: 0
SpecialStyle: 0
WidescreenStoryboard: 1

[Editor]
DistanceSpacing: 1.4
BeatDivisor: 4
GridSize: 16
TimelineZoom: 1.2

[Metadata]
Title:Nankai Renai
TitleUnicode:ナンカイレンアイ
Artist:Takanon
ArtistUnicode:タカノン
Creator:Eternalie
Version:Normal
Source:
Tags:GUMI Vocaloid Love red fate
BeatmapID:732998
BeatmapSetID:330807

[Difficulty]
HPDrainRate:7.5
CircleSize:5
OverallDifficulty:7
ApproachRate:5
SliderMultiplier:1.4
SliderTickRate:1

[Events]
//Background and Video events
0,0,"Nankai renai.jpg",0,0
//Break Periods
//Storyboard Layer 0 (Background)
//Storyboard Layer 1 (Fail)
//Storyboard Layer 2 (Pass)
//Storyboard Layer 3 (Foreground)
//Storyboard Sound Samples

[TimingPoints]
818,375,4,2,0,25,1,0

[HitObjects]
51,192,818,5,4,0:0:0:0:
460,192,818,128,0,1380:0:0:0:0:
153,192,1380,128,0,1943:0:0:0:0:
256,192,1943,128,0,2505:0:0:0:0:
153,192,2505,128,0,3068:0:0:0:0:
51,192,3068,128,0,3443:0:0:0:0:
460,192,3443,1,8,0:0:0:0:
153,192,3818,128,0,4380:0:0:0:0:
256,192,4380,128,0,4943:0:0:0:0:
358,192,4943,128,0,5505:0:0:0:0:
256,192,5505,128,0,6068:0:0:0:0:
153,192,6068,128,0,6443:0:0:0:0:
460,192,6443,1,0,0:0:0:0:
51,192,6818,128,0,7380:0:0:0:0:
256,192,6818,1,4,0:0:0:0:
358,192,7380,128,0,7943:0:0:0:0:
460,192,7943,128,0,8505:0:0:0:0:
358,192,8505,128,0,9068:0:0:0:0:
256,192,9068,128,0,9443:0:0:0:0:
51,192,9443,1,8,0:0:0:0:
153,192,9818,128,0,10380:0:0:0:0:
256,192,10380,128,0,10943:0:0:0:0:
358,192,10943,128,0,11505:0:0:0:0:
460,192,11505,128,0,11880:0:0:0:0:
51,192,11880,128,0,12255:0:0:0:0:
153,192,12255,1,8,0:0:0:0:
256,192,12443,1,0,0:0:0:0:
358,192,12630,1,8,0:0:0:0:
153,192,12818,1,4,0:0:0:0:
460,192,12818,128,0,13193:0:0:0:0:
51,192,13193,128,0,13568:0:0:0:0:
358,192,13568,128,0,13943:0:0:0:0:
153,192,13943,128,0,14318:0:0:0:0:
460,192,14318,128,0,14693:0:0:0:0:
51,192,14693,128,0,15068:0:0:0:0:
358,192,15068,128,0,15443:0:0:0:0:
153,192,15443,128,0,15818:0:0:0:0:
460,192,15818,128,0,16193:0:0:0:0:
51,192,16193,128,0,16568:0:0:0:0:
358,192,16568,128,0,16943:0:0:0:0:
51,192,16943,1,8,0:0:0:0:
256,192,17130,128,0,17505:0:0:0:0:
51,192,17505,128,0,17880:0:0:0:0:
256,192,17880,128,0,18255:0:0:0:0:
153,192,18255,128,0,18630:0:0:0:0:
51,192,18630,1,8,0:0:0:0:
460,192,18818,1,0,0:0:0:0:
358,192,18818,1,4,0:0:0:0:
153,192,19005,1,0,0:0:0:0:
256,192,19193,1,0,0:0:0:0:
51,192,19380,128,0,19755:0:0:0:0:
153,192,19755,128,0,20130:0:0:0:0:
256,192,20130,128,0,20505:0:0:0:0:
153,192,20505,128,0,20880:0:0:0:0:
51,192,20880,128,0,21255:0:0:0:0:
358,192,21255,1,8,0:0:0:0:
153,192,21630,1,0,0:0:0:0:
460,192,21818,1,0,0:0:0:0:
51,192,22005,1,0,0:0:0:0:
358,192,22193,1,8,0:0:0:0:
153,192,22380,128,0,22755:0:0:0:0:
256,192,22755,128,0,23130:0:0:0:0:
358,192,23130,128,0,23505:0:0:0:0:
460,192,23505,128,0,23880:0:0:0:0:
358,192,23880,128,0,24255:0:0:0:0:
256,192,24255,128,0,24630:0:0:0:0:
51,192,24630,1,8,0:0:0:0:
460,192,24818,128,0,25380:0:0:0:0:
153,192,24818,1,4,0:0:0:0:
51,192,25193,1,0,0:0:0:0:
256,192,25380,128,0,27818:0:0:0:0:
153,192,25568,1,0,0:0:0:0:
51,192,25943,1,0,0:0:0:0:
153,192,26318,1,0,0:0:0:0:
51,192,26693,1,0,0:0:0:0:
153,192,27068,1,0,0:0:0:0:
51,192,27443,1,0,0:0:0:0:
460,192,27818,1,0,0:0:0:0:
358,192,28193,1,0,0:0:0:0:
460,192,28568,1,0,0:0:0:0:
358,192,28943,1,0,0:0:0:0:
153,192,29318,1,0,0:0:0:0:
256,192,29693,1,0,0:0:0:0:
51,192,30068,1,0,0:0:0:0:
153,192,30443,1,0,0:0:0:0:
460,192,30818,1,0,0:0:0:0:
358,192,31193,1,0,0:0:0:0:
51,192,31568,1,0,0:0:0:0:
153,192,31943,1,0,0:0:0:0:
358,192,32318,1,0,0:0:0:0:
256,192,32693,1,0,0:0:0:0:
51,192,33068,1,0,0:0:0:0:
460,192,33443,1,0,0:0:0:0:
153,192,33818,1,0,0:0:0:0:
358,192,34193,1,0,0:0:0:0:
153,192,34568,1,0,0:0:0:0:
358,192,34943,1,0,0:0:0:0:
460,192,35505,1,0,0:0:0:0:
51,192,35505,1,8,0:0:0:0:
256,192,35880,1,0,0:0:0:0:
51,192,36068,1,8,0:0:0:0:
460,192,36068,1,0,0:0:0:0:
256,192,36255,1,0,0:0:0:0:
153,192,36443,1,8,0:0:0:0:
358,192,36630,1,0,0:0:0:0:
153,192,36818,1,4,0:0:0:0:
51,192,36818,1,0,0:0:0:0:
358,192,37193,1,8,0:0:0:0:
460,192,37193,1,0,0:0:0:0:
256,192,37568,1,0,0:0:0:0:
153,192,37943,1,8,0:0:0:0:
460,192,37943,1,0,0:0:0:0:
51,192,38318,1,0,0:0:0:0:
358,192,38693,1,0,0:0:0:0:
256,192,38693,1,8,0:0:0:0:
153,192,39068,1,0,0:0:0:0:
51,192,39443,1,8,0:0:0:0:
460,192,39443,1,0,0:0:0:0:
358,192,39818,1,0,0:0:0:0:
153,192,40193,1,8,0:0:0:0:
256,192,40193,1,0,0:0:0:0:
51,192,40568,1,0,0:0:0:0:
153,192,40943,1,8,0:0:0:0:
358,192,40943,1,0,0:0:0:0:
460,192,41318,1,0,0:0:0:0:
51,192,41693,1,8,0:0:0:0:
358,192,41693,1,0,0:0:0:0:
153,192,42068,1,0,0:0:0:0:
460,192,42443,1,0,0:0:0:0:
256,192,42443,1,8,0:0:0:0:
51,192,42818,1,0,0:0:0:0:
358,192,43193,1,0,0:0:0:0:
153,192,43193,1,8,0:0:0:0:
460,192,43568,1,0,0:0:0:0:
51,192,43943,1,8,0:0:0:0:
256,192,43943,1,0,0:0:0:0:
358,192,44318,1,0,0:0:0:0:
460,192,44693,1,0,0:0:0:0:
153,192,44693,1,8,0:0:0:0:
51,192,45068,1,0,0:0:0:0:
256,192,45443,1,8,0:0:0:0:
460,192,45443,1,0,0:0:0:0:
51,192,45818,1,0,0:0:0:0:
358,192,46193,1,0,0:0:0:0:
153,192,46193,1,8,0:0:0:0:
460,192,46568,1,0,0:0:0:0:
153,192,46943,1,8,0:0:0:0:
358,192,46943,1,0,0:0:0:0:
51,192,47318,1,0,0:0:0:0:
153,192,47693,1,8,0:0:0:0:
460,192,47693,1,0,0:0:0:0:
51,192,48068,1,8,0:0:0:0:
153,192,48255,1,8,0:0:0:0:
460,192,48443,1,0,0:0:0:0:
358,192,48630,1,8,0:0:0:0:
51,192,48818,1,4,0:0:0:0:
256,192,48818,1,0,0:0:0:0:
153,192,49193,1,8,0:0:0:0:
460,192,49193,1,0,0:0:0:0:
358,192,49568,1,0,0:0:0:0:
256,192,49943,1,0,0:0:0:0:
51,192,49943,1,8,0:0:0:0:
153,192,50318,1,0,0:0:0:0:
460,192,50693,1,0,0:0:0:0:
358,192,50693,1,8,0:0:0:0:
51,192,51068,1,0,0:0:0:0:
256,192,51443,1,8,0:0:0:0:
358,192,51443,1,0,0:0:0:0:
153,192,51818,1,0,0:0:0:0:
51,192,52193,1,8,0:0:0:0:
460,192,52193,1,0,0:0:0:0:
358,192,52568,1,0,0:0:0:0:
256,192,52943,1,0,0:0:0:0:
153,192,52943,1,8,0:0:0:0:
51,192,53318,1,0,0:0:0:0:
460,192,53693,1,0,0:0:0:0:
358,192,53693,1,8,0:0:0:0:
256,192,54068,1,0,0:0:0:0:
51,192,54255,1,8,0:0:0:0:
153,192,54255,1,0,0:0:0:0:
358,192,54443,1,8,0:0:0:0:
460,192,54443,1,0,0:0:0:0:
256,192,54818,1,0,0:0:0:0:
51,192,54818,1,4,0:0:0:0:
460,192,55193,1,8,0:0:0:0:
153,192,55193,1,0,0:0:0:0:
51,192,55568,1,0,0:0:0:0:
256,192,55943,1,8,0:0:0:0:
358,192,55943,1,0,0:0:0:0:
51,192,56318,1,0,0:0:0:0:
460,192,56693,1,0,0:0:0:0:
153,192,56693,1,8,0:0:0:0:
358,192,57068,1,0,0:0:0:0:
256,192,57443,1,0,0:0:0:0:
51,192,57443,1,8,0:0:0:0:
153,192,57818,1,0,0:0:0:0:
460,192,58193,1,0,0:0:0:0:
358,192,58193,1,8,0:0:0:0:
51,192,58568,1,0,0:0:0:0:
153,192,58943,1,8,0:0:0:0:
256,192,58943,1,0,0:0:0:0:
460,192,59318,1,0,0:0:0:0:
51,192,59693,1,8,0:0:0:0:
153,192,59693,1,0,0:0:0:0:
256,192,60068,1,0,0:0:0:0:
358,192,60255,1,8,0:0:0:0:
460,192,60255,1,0,0:0:0:0:
51,192,60443,1,0,0:0:0:0:
153,192,60443,1,8,0:0:0:0:
256,192,60818,1,0,0:0:0:0:
460,192,60818,1,4,0:0:0:0:
153,192,61193,1,8,0:0:0:0:
358,192,61568,1,0,0:0:0:0:
51,192,61943,1,8,0:0:0:0:
256,192,61943,1,0,0:0:0:0:
460,192,62318,1,0,0:0:0:0:
153,192,62693,1,8,0:0:0:0:
358,192,62693,1,0,0:0:0:0:
51,192,63068,1,0,0:0:0:0:
153,192,63443,1,8,0:0:0:0:
358,192,63443,1,0,0:0:0:0:
256,192,63818,1,0,0:0:0:0:
460,192,64193,1,0,0:0:0:0:
358,192,64193,1,8,0:0:0:0:
256,192,64568,1,0,0:0:0:0:
51,192,64943,1,8,0:0:0:0:
153,192,64943,1,0,0:0:0:0:
460,192,65318,1,0,0:0:0:0:
153,192,65693,1,8,0:0:0:0:
256,192,65693,1,0,0:0:0:0:
51,192,66068,1,0,0:0:0:0:
460,192,66255,1,0,0:0:0:0:
358,192,66255,1,8,0:0:0:0:
153,192,66443,1,8,0:0:0:0:
256,192,66443,1,0,0:0:0:0:
51,192,66818,1,4,0:0:0:0:
460,192,66818,1,0,0:0:0:0:
358,192,67380,1,0,0:0:0:0:
153,192,67380,1,4,0:0:0:0:
460,192,67755,1,0,0:0:0:0:
51,192,67943,1,0,0:0:0:0:
358,192,68130,1,0,0:0:0:0:
153,192,68318,1,4,0:0:0:0:
256,192,68318,1,0,0:0:0:0:
460,192,68880,1,0,0:0:0:0:
358,192,68880,1,4,0:0:0:0:
51,192,69255,1,0,0:0:0:0:
460,192,69443,1,8,0:0:0:0:
256,192,69630,1,0,0:0:0:0:
153,192,69818,1,4,0:0:0:0:
358,192,69818,1,0,0:0:0:0:
51,192,70380,1,4,0:0:0:0:
460,192,70380,1,0,0:0:0:0:
358,192,70755,1,0,0:0:0:0:
153,192,70943,1,8,0:0:0:0:
358,192,71130,1,0,0:0:0:0:
153,192,71318,1,0,0:0:0:0:
51,192,71505,1,0,0:0:0:0:
460,192,71505,1,8,0:0:0:0:
153,192,71693,1,0,0:0:0:0:
358,192,71693,1,8,0:0:0:0:
256,192,71880,1,0,0:0:0:0:
153,192,72068,1,0,0:0:0:0:
358,192,72068,1,8,0:0:0:0:
51,192,72443,1,0,0:0:0:0:
460,192,72443,1,8,0:0:0:0:
153,192,72818,1,4,0:0:0:0:
358,192,72818,1,0,0:0:0:0:
460,192,73193,1,8,0:0:0:0:
51,192,73568,1,0,0:0:0:0:
358,192,73943,1,8,0:0:0:0:
460,192,73943,1,0,0:0:0:0:
153,192,74318,1,0,0:0:0:0:
358,192,74693,1,0,0:0:0:0:
256,192,74693,1,8,0:0:0:0:
51,192,75068,1,0,0:0:0:0:
358,192,75443,1,8,0:0:0:0:
460,192,75443,1,0,0:0:0:0:
256,192,75818,1,0,0:0:0:0:
153,192,76193,1,0,0:0:0:0:
51,192,76193,1,8,0:0:0:0:
358,192,76568,1,0,0:0:0:0:
256,192,76943,1,0,0:0:0:0:
153,192,76943,1,8,0:0:0:0:
460,192,77318,1,0,0:0:0:0:
358,192,77693,1,0,0:0:0:0:
256,192,77693,1,8,0:0:0:0:
51,192,78255,1,8,0:0:0:0:
153,192,78255,1,0,0:0:0:0:
460,192,78443,1,0,0:0:0:0:
51,192,78630,1,8,0:0:0:0:
153,192,78630,1,0,0:0:0:0:
256,192,78818,1,4,0:0:0:0:
460,192,78818,1,0,0:0:0:0:
358,192,79193,1,8,0:0:0:0:
51,192,79193,1,0,0:0:0:0:
153,192,79568,1,0,0:0:0:0:
358,192,79943,1,0,0:0:0:0:
256,192,79943,1,8,0:0:0:0:
51,192,80318,1,0,0:0:0:0:
460,192,80693,1,0,0:0:0:0:
153,192,80693,1,8,0:0:0:0:
51,192,81068,1,0,0:0:0:0:
256,192,81443,1,8,0:0:0:0:
358,192,81443,1,0,0:0:0:0:
153,192,81818,1,0,0:0:0:0:
460,192,82193,1,0,0:0:0:0:
358,192,82193,1,8,0:0:0:0:
51,192,82568,1,0,0:0:0:0:
358,192,82943,1,0,0:0:0:0:
256,192,82943,1,8,0:0:0:0:
153,192,83318,1,0,0:0:0:0:
460,192,83693,1,0,0:0:0:0:
51,192,83693,1,8,0:0:0:0:
153,192,84068,1,0,0:0:0:0:
358,192,84068,1,0,0:0:0:0:
51,192,84443,1,8,0:0:0:0:
460,192,84443,1,0,0:0:0:0:
358,192,84818,1,0,0:0:0:0:
256,192,84818,1,4,0:0:0:0:
153,192,85193,1,8,0:0:0:0:
460,192,85568,1,0,0:0:0:0:
51,192,85943,1,8,0:0:0:0:
358,192,85943,1,0,0:0:0:0:
153,192,86318,1,0,0:0:0:0:
460,192,86693,1,0,0:0:0:0:
256,192,86693,1,8,0:0:0:0:
51,192,87068,1,0,0:0:0:0:
153,192,87443,1,8,0:0:0:0:
358,192,87443,1,0,0:0:0:0:
460,192,87818,1,0,0:0:0:0:
256,192,88193,1,0,0:0:0:0:
51,192,88193,1,8,0:0:0:0:
358,192,88568,1,0,0:0:0:0:
153,192,88943,1,8,0:0:0:0:
460,192,88943,1,0,0:0:0:0:
358,192,89318,1,0,0:0:0:0:
51,192,89693,1,8,0:0:0:0:
256,192,89693,1,0,0:0:0:0:
358,192,90255,1,8,0:0:0:0:
460,192,90255,1,0,0:0:0:0:
51,192,90443,1,0,0:0:0:0:
358,192,90630,1,8,0:0:0:0:
460,192,90630,1,0,0:0:0:0:
256,192,90818,1,4,0:0:0:0:
51,192,90818,1,0,0:0:0:0:
153,192,91193,1,8,0:0:0:0:
358,192,91193,1,0,0:0:0:0:
460,192,91568,1,0,0:0:0:0:
51,192,91943,1,8,0:0:0:0:
358,192,91943,1,0,0:0:0:0:
153,192,92318,1,0,0:0:0:0:
256,192,92693,1,8,0:0:0:0:
460,192,92693,1,0,0:0:0:0:
51,192,93068,1,0,0:0:0:0:
153,192,93443,1,8,0:0:0:0:
358,192,93443,1,0,0:0:0:0:
256,192,93818,1,0,0:0:0:0:
460,192,94193,1,0,0:0:0:0:
358,192,94193,1,8,0:0:0:0:
51,192,94568,1,0,0:0:0:0:
153,192,94943,1,8,0:0:0:0:
256,192,94943,1,0,0:0:0:0:
460,192,95318,1,0,0:0:0:0:
358,192,95693,1,0,0:0:0:0:
51,192,95693,1,8,0:0:0:0:
460,192,96068,1,8,0:0:0:0:
358,192,96255,1,8,0:0:0:0:
256,192,96443,1,8,0:0:0:0:
153,192,96630,1,8,0:0:0:0:
51,192,96818,1,4,0:0:0:0:
460,192,96818,1,0,0:0:0:0:
358,192,97193,1,0,0:0:0:0:
460,192,97568,1,0,0:0:0:0:
358,192,97943,1,0,0:0:0:0:
51,192,98318,1,0,0:0:0:0:
153,192,98693,1,0,0:0:0:0:
51,192,99068,1,0,0:0:0:0:
153,192,99443,1,0,0:0:0:0:
358,192,99818,1,0,0:0:0:0:
460,192,100193,1,0,0:0:0:0:
358,192,100568,1,0,0:0:0:0:
460,192,100943,1,0,0:0:0:0:
153,192,101318,1,0,0:0:0:0:
51,192,101693,1,0,0:0:0:0:
153,192,102068,1,0,0:0:0:0:
51,192,102443,1,0,0:0:0:0:
460,192,102818,1,0,0:0:0:0:
153,192,103193,1,0,0:0:0:0:
460,192,103568,1,0,0:0:0:0:
153,192,103943,1,0,0:0:0:0:
51,192,104318,1,0,0:0:0:0:
460,192,104693,1,0,0:0:0:0:
51,192,105068,1,0,0:0:0:0:
460,192,105443,1,0,0:0:0:0:
358,192,105818,1,0,0:0:0:0:
153,192,106193,1,0,0:0:0:0:
358,192,106568,1,0,0:0:0:0:
153,192,106943,1,0,0:0:0:0:
256,192,107318,1,0,0:0:0:0:
460,192,107505,1,0,0:0:0:0:
358,192,107505,1,8,0:0:0:0:
51,192,107880,1,8,0:0:0:0:
358,192,108068,1,8,0:0:0:0:
460,192,108068,1,0,0:0:0:0:
256,192,108443,1,8,0:0:0:0:
358,192,108630,1,0,0:0:0:0:
51,192,108818,1,4,0:0:0:0:
460,192,108818,1,0,0:0:0:0:
153,192,109193,1,0,0:0:0:0:
358,192,109193,1,0,0:0:0:0:
256,192,109568,1,0,0:0:0:0:
358,192,109943,1,8,0:0:0:0:
460,192,109943,1,0,0:0:0:0:
256,192,110318,1,0,0:0:0:0:
51,192,110693,1,8,0:0:0:0:
153,192,110693,1,0,0:0:0:0:
460,192,111068,1,0,0:0:0:0:
358,192,111443,1,0,0:0:0:0:
153,192,111443,1,8,0:0:0:0:
51,192,111818,1,0,0:0:0:0:
358,192,112193,1,8,0:0:0:0:
256,192,112193,1,0,0:0:0:0:
460,192,112568,1,0,0:0:0:0:
153,192,112943,1,0,0:0:0:0:
256,192,112943,1,8,0:0:0:0:
51,192,113318,1,0,0:0:0:0:
460,192,113693,1,0,0:0:0:0:
153,192,113693,1,8,0:0:0:0:
256,192,114068,1,0,0:0:0:0:
358,192,114443,1,8,0:0:0:0:
460,192,114443,1,0,0:0:0:0:
51,192,114818,1,0,0:0:0:0:
153,192,115193,1,8,0:0:0:0:
358,192,115193,1,0,0:0:0:0:
460,192,115568,1,0,0:0:0:0:
256,192,115943,1,0,0:0:0:0:
51,192,115943,1,8,0:0:0:0:
358,192,116318,1,0,0:0:0:0:
153,192,116693,1,8,0:0:0:0:
460,192,116693,1,0,0:0:0:0:
51,192,117068,1,0,0:0:0:0:
256,192,117443,1,8,0:0:0:0:
358,192,117443,1,0,0:0:0:0:
153,192,117818,1,0,0:0:0:0:
460,192,118193,1,0,0:0:0:0:
358,192,118193,1,8,0:0:0:0:
51,192,118568,1,0,0:0:0:0:
153,192,118943,1,8,0:0:0:0:
256,192,118943,1,0,0:0:0:0:
460,192,119318,1,0,0:0:0:0:
51,192,119693,1,8,0:0:0:0:
153,192,119693,1,0,0:0:0:0:
460,192,120068,1,8,0:0:0:0:
358,192,120255,1,8,0:0:0:0:
256,192,120443,128,0,120818:0:0:0:0:
51,192,120818,1,4,0:0:0:0:
460,192,120818,128,0,121380:0:0:0:0:
358,192,121380,128,0,121943:0:0:0:0:
256,192,121943,128,0,122505:0:0:0:0:
460,192,122505,128,0,123068:0:0:0:0:
153,192,123068,128,0,123443:0:0:0:0:
358,192,123443,1,8,0:0:0:0:
51,192,123818,128,0,124380:0:0:0:0:
153,192,124380,128,0,124943:0:0:0:0:
256,192,124943,128,0,125505:0:0:0:0:
153,192,125505,128,0,126068:0:0:0:0:
51,192,126068,128,0,126443:0:0:0:0:
460,192,126443,1,8,0:0:0:0:
153,192,126818,128,0,127380:0:0:0:0:
256,192,127380,128,0,127943:0:0:0:0:
358,192,127943,128,0,128505:0:0:0:0:
256,192,128505,128,0,129068:0:0:0:0:
153,192,129068,128,0,129443:0:0:0:0:
51,192,129443,1,8,0:0:0:0:
460,192,129818,1,0,0:0:0:0:
256,192,130005,128,0,130380:0:0:0:0:
51,192,130380,128,0,130755:0:0:0:0:
153,192,130755,128,0,131130:0:0:0:0:
256,192,131130,128,0,131505:0:0:0:0:
358,192,131505,128,0,131880:0:0:0:0:
460,192,131880,128,0,132255:0:0:0:0:
51,192,132255,1,8,0:0:0:0:
153,192,132443,1,0,0:0:0:0:
256,192,132630,1,8,0:0:0:0:
358,192,132818,1,4,0:0:0:0:
460,192,132818,128,8,133380:0:0:0:0:
51,192,133380,128,0,133943:0:0:0:0:
358,192,133943,128,0,134505:0:0:0:0:
153,192,134505,128,0,135068:0:0:0:0:
51,192,135068,128,0,135443:0:0:0:0:
358,192,135443,1,8,0:0:0:0:
153,192,135818,128,0,136380:0:0:0:0:
256,192,136380,128,0,136943:0:0:0:0:
358,192,136943,128,0,137505:0:0:0:0:
256,192,137505,128,0,138068:0:0:0:0:
153,192,138068,128,0,138443:0:0:0:0:
358,192,138255,1,0,0:0:0:0:
460,192,138443,1,8,0:0:0:0:
256,192,138630,1,0,0:0:0:0:
358,192,138818,1,4,0:0:0:0:
51,192,138818,128,0,139380:0:0:0:0:
153,192,139380,128,0,139943:0:0:0:0:
256,192,139943,128,0,140505:0:0:0:0:
358,192,140505,128,0,141068:0:0:0:0:
256,192,141068,128,0,141443:0:0:0:0:
153,192,141443,128,0,141818:0:0:0:0:
51,192,141818,1,8,0:0:0:0:
460,192,142005,128,0,142380:0:0:0:0:
358,192,142380,128,0,142755:0:0:0:0:
51,192,142755,128,0,143130:0:0:0:0:
153,192,143130,128,0,143505:0:0:0:0:
256,192,143505,128,0,143880:0:0:0:0:
358,192,143880,128,0,144255:0:0:0:0:
460,192,144255,128,0,144818:0:0:0:0:
153,192,144255,1,0,0:0:0:0:
256,192,144443,1,0,0:0:0:0:
153,192,144630,1,0,0:0:0:0:
51,192,144818,1,4,0:0:0:0:
256,192,144818,128,0,147818:0:0:0:0:
460,192,145193,1,0,0:0:0:0:
358,192,145568,1,0,0:0:0:0:
460,192,145943,1,0,0:0:0:0:
358,192,146318,1,0,0:0:0:0:
460,192,146693,1,0,0:0:0:0:
358,192,147068,1,0,0:0:0:0:
460,192,147443,1,0,0:0:0:0:
51,192,147818,1,0,0:0:0:0:
153,192,148193,1,0,0:0:0:0:
51,192,148568,1,0,0:0:0:0:
153,192,148943,1,0,0:0:0:0:
51,192,149318,1,0,0:0:0:0:
153,192,149693,1,0,0:0:0:0:
51,192,150068,1,0,0:0:0:0:
153,192,150443,1,0,0:0:0:0:
358,192,150630,1,0,0:0:0:0:
460,192,150818,1,0,0:0:0:0:
256,192,150818,1,0,0:0:0:0:
153,192,151193,1,0,0:0:0:0:
460,192,151568,1,0,0:0:0:0:
153,192,151943,1,0,0:0:0:0:
358,192,152318,1,0,0:0:0:0:
51,192,152693,1,0,0:0:0:0:
358,192,153068,1,0,0:0:0:0:
51,192,153443,1,0,0:0:0:0:
153,192,153818,1,0,0:0:0:0:
460,192,154193,1,0,0:0:0:0:
153,192,154568,1,0,0:0:0:0:
460,192,154943,1,0,0:0:0:0:
51,192,155318,1,0,0:0:0:0:
358,192,155693,1,0,0:0:0:0:
51,192,156068,1,0,0:0:0:0:
153,192,156255,1,0,0:0:0:0:
256,192,156443,1,0,0:0:0:0:
358,192,156630,1,0,0:0:0:0:
153,192,156818,1,0,0:0:0:0:
460,192,156818,1,4,0:0:0:0:
51,192,157193,1,0,0:0:0:0:
358,192,157568,1,0,0:0:0:0:
153,192,157943,1,0,0:0:0:0:
460,192,158318,1,0,0:0:0:0:
51,192,158693,1,0,0:0:0:0:
358,192,159068,1,0,0:0:0:0:
153,192,159443,1,0,0:0:0:0:
460,192,159818,1,0,0:0:0:0:
256,192,160193,1,0,0:0:0:0:
51,192,160568,1,0,0:0:0:0:
460,192,160943,1,0,0:0:0:0:
256,192,161318,1,0,0:0:0:0:
51,192,161693,1,0,0:0:0:0:
358,192,162068,1,0,0:0:0:0:
153,192,162443,1,0,0:0:0:0:
256,192,162630,1,0,0:0:0:0:
358,192,162818,1,4,0:0:0:0:
460,192,162818,1,0,0:0:0:0:
51,192,163193,1,8,0:0:0:0:
358,192,163380,1,4,0:0:0:0:
460,192,163380,1,0,0:0:0:0:
153,192,163755,1,0,0:0:0:0:
358,192,163943,1,8,0:0:0:0:
460,192,163943,1,0,0:0:0:0:
51,192,164318,1,4,0:0:0:0:
256,192,164318,1,0,0:0:0:0:
460,192,164693,1,0,0:0:0:0:
51,192,164880,1,0,0:0:0:0:
153,192,164880,1,4,0:0:0:0:
358,192,165255,1,0,0:0:0:0:
51,192,165443,1,0,0:0:0:0:
153,192,165443,1,8,0:0:0:0:
256,192,165818,1,4,0:0:0:0:
358,192,165818,1,0,0:0:0:0:
51,192,166193,1,0,0:0:0:0:
153,192,166193,1,8,0:0:0:0:
460,192,166380,1,0,0:0:0:0:
358,192,166380,1,4,0:0:0:0:
153,192,166755,1,0,0:0:0:0:
256,192,166943,1,8,0:0:0:0:
358,192,167130,1,0,0:0:0:0:
51,192,167505,1,8,0:0:0:0:
153,192,167693,1,8,0:0:0:0:
256,192,167880,1,0,0:0:0:0:
358,192,168068,1,8,0:0:0:0:
460,192,168255,1,0,0:0:0:0:
51,192,168443,1,8,0:0:0:0:
256,192,168630,1,8,0:0:0:0:
460,192,168818,1,0,0:0:0:0:
153,192,168818,1,0,0:0:0:0:
153,192,169193,1,0,0:0:0:0:
460,192,169193,1,0,0:0:0:0:
256,192,169380,1,0,0:0:0:0:
358,192,169568,1,0,0:0:0:0:
460,192,169568,1,0,0:0:0:0:
51,192,169943,1,0,0:0:0:0:
153,192,169943,1,8,0:0:0:0:
460,192,170318,1,0,0:0:0:0:
153,192,170693,1,8,0:0:0:0:
358,192,170693,1,0,0:0:0:0:
51,192,171068,1,0,0:0:0:0:
256,192,171443,1,8,0:0:0:0:
460,192,171443,1,0,0:0:0:0:
153,192,171818,1,0,0:0:0:0:
358,192,172193,1,0,0:0:0:0:
51,192,172193,1,8,0:0:0:0:
256,192,172568,1,0,0:0:0:0:
153,192,172943,1,8,0:0:0:0:
460,192,172943,1,0,0:0:0:0:
358,192,173318,1,0,0:0:0:0:
51,192,173693,1,8,0:0:0:0:
256,192,173693,1,0,0:0:0:0:
153,192,174068,1,0,0:0:0:0:
358,192,174443,1,0,0:0:0:0:
256,192,174443,1,8,0:0:0:0:
460,192,174818,1,0,0:0:0:0:
51,192,175005,1,8,0:0:0:0:
153,192,175005,1,0,0:0:0:0:
358,192,175380,1,0,0:0:0:0:
256,192,175568,1,0,0:0:0:0:
51,192,175568,1,4,0:0:0:0:
153,192,175943,1,8,0:0:0:0:
460,192,175943,1,0,0:0:0:0:
358,192,176318,1,0,0:0:0:0:
256,192,176693,1,8,0:0:0:0:
460,192,176693,1,0,0:0:0:0:
51,192,177068,1,0,0:0:0:0:
460,192,177443,1,0,0:0:0:0:
153,192,177443,1,8,0:0:0:0:
358,192,177818,1,0,0:0:0:0:
256,192,178193,1,0,0:0:0:0:
51,192,178193,1,8,0:0:0:0:
153,192,178568,1,0,0:0:0:0:
460,192,178943,1,0,0:0:0:0:
358,192,178943,1,8,0:0:0:0:
51,192,179318,1,0,0:0:0:0:
256,192,179693,1,0,0:0:0:0:
153,192,179693,1,8,0:0:0:0:
460,192,180068,1,0,0:0:0:0:
358,192,180443,1,0,0:0:0:0:
256,192,180443,1,8,0:0:0:0:
153,192,180818,1,0,0:0:0:0:
51,192,181193,1,8,0:0:0:0:
460,192,181193,1,0,0:0:0:0:
153,192,181568,1,4,0:0:0:0:
358,192,181568,1,0,0:0:0:0:
256,192,181943,1,8,0:0:0:0:
460,192,182318,1,0,0:0:0:0:
51,192,182693,1,8,0:0:0:0:
358,192,182693,1,0,0:0:0:0:
256,192,183068,1,0,0:0:0:0:
153,192,183443,1,8,0:0:0:0:
460,192,183443,1,0,0:0:0:0:
51,192,183818,1,0,0:0:0:0:
256,192,184193,1,8,0:0:0:0:
358,192,184193,1,0,0:0:0:0:
153,192,184568,1,0,0:0:0:0:
460,192,184943,1,0,0:0:0:0:
358,192,184943,1,8,0:0:0:0:
51,192,185318,1,0,0:0:0:0:
153,192,185693,1,8,0:0:0:0:
256,192,185693,1,0,0:0:0:0:
460,192,186068,1,0,0:0:0:0:
51,192,186443,1,8,0:0:0:0:
358,192,186443,1,0,0:0:0:0:
460,192,186818,1,0,0:0:0:0:
51,192,187005,1,8,0:0:0:0:
358,192,187193,1,0,0:0:0:0:
51,192,187380,1,0,0:0:0:0:
358,192,187568,1,4,0:0:0:0:
460,192,187568,1,0,0:0:0:0:
256,192,187943,1,8,0:0:0:0:
51,192,187943,1,0,0:0:0:0:
460,192,188318,1,0,0:0:0:0:
153,192,188693,1,8,0:0:0:0:
358,192,188693,1,0,0:0:0:0:
51,192,189068,1,0,0:0:0:0:
256,192,189443,1,8,0:0:0:0:
460,192,189443,1,0,0:0:0:0:
153,192,189818,1,0,0:0:0:0:
358,192,190193,1,0,0:0:0:0:
51,192,190193,1,8,0:0:0:0:
460,192,190568,1,0,0:0:0:0:
153,192,190943,1,8,0:0:0:0:
358,192,190943,1,0,0:0:0:0:
51,192,191318,1,0,0:0:0:0:
256,192,191693,1,8,0:0:0:0:
460,192,191693,1,0,0:0:0:0:
153,192,192068,1,0,0:0:0:0:
358,192,192443,1,0,0:0:0:0:
256,192,192443,1,8,0:0:0:0:
51,192,192818,1,8,0:0:0:0:
153,192,193005,1,8,0:0:0:0:
256,192,193193,1,8,0:0:0:0:
358,192,193380,1,8,0:0:0:0:
460,192,193568,1,0,0:0:0:0:
153,192,193568,1,4,0:0:0:0:
51,192,193943,1,8,0:0:0:0:
256,192,194318,1,0,0:0:0:0:
153,192,194693,1,0,0:0:0:0:
358,192,195068,1,0,0:0:0:0:
256,192,195443,1,0,0:0:0:0:
460,192,195818,1,0,0:0:0:0:
358,192,196193,1,0,0:0:0:0:
51,192,196568,1,0,0:0:0:0:
256,192,196943,1,0,0:0:0:0:
153,192,197318,1,0,0:0:0:0:
358,192,197693,1,0,0:0:0:0:
256,192,198068,1,0,0:0:0:0:
460,192,198443,1,0,0:0:0:0:
153,192,198818,1,0,0:0:0:0:
256,192,199193,1,0,0:0:0:0:
460,192,199380,1,0,0:0:0:0:
358,192,199568,1,0,0:0:0:0:
51,192,199568,1,4,0:0:0:0:
460,192,199943,1,0,0:0:0:0:
153,192,200318,1,0,0:0:0:0:
358,192,200693,1,0,0:0:0:0:
51,192,201068,1,0,0:0:0:0:
256,192,201443,1,0,0:0:0:0:
153,192,201818,1,0,0:0:0:0:
358,192,202193,1,0,0:0:0:0:
256,192,202568,1,0,0:0:0:0:
153,192,202943,1,0,0:0:0:0:
51,192,203318,1,0,0:0:0:0:
358,192,203693,1,0,0:0:0:0:
51,192,204068,1,0,0:0:0:0:
153,192,204443,1,0,0:0:0:0:
256,192,204818,1,0,0:0:0:0:
358,192,205193,1,0,0:0:0:0:
256,192,205380,1,0,0:0:0:0:
460,192,205568,1,0,0:0:0:0:
51,192,205568,1,4,0:0:0:0:
153,192,205943,1,0,0:0:0:0:
358,192,206318,1,0,0:0:0:0:
153,192,206693,1,0,0:0:0:0:
460,192,207068,1,0,0:0:0:0:
51,192,207443,1,0,0:0:0:0:
460,192,207818,1,0,0:0:0:0:
51,192,208193,1,0,0:0:0:0:
358,192,208568,1,0,0:0:0:0:
460,192,208943,1,0,0:0:0:0:
153,192,209318,1,0,0:0:0:0:
51,192,209693,1,0,0:0:0:0:
358,192,210068,1,0,0:0:0:0:
256,192,210443,1,0,0:0:0:0:
153,192,210818,1,0,0:0:0:0:
51,192,211193,1,0,0:0:0:0:
256,192,211380,1,0,0:0:0:0:
460,192,211568,1,0,0:0:0:0:
153,192,211568,1,4,0:0:0:0:
358,192,211943,1,0,0:0:0:0:
51,192,212318,1,0,0:0:0:0:
358,192,212693,1,0,0:0:0:0:
153,192,213068,1,0,0:0:0:0:
460,192,213443,1,0,0:0:0:0:
51,192,213818,1,0,0:0:0:0:
358,192,214193,1,0,0:0:0:0:
256,192,214568,1,0,0:0:0:0:
153,192,214943,1,0,0:0:0:0:
460,192,215318,1,0,0:0:0:0:
358,192,215693,1,0,0:0:0:0:
256,192,216068,1,0,0:0:0:0:
460,192,216443,1,0,0:0:0:0:
51,192,216818,1,8,0:0:0:0:
153,192,217005,1,8,0:0:0:0:
256,192,217193,1,8,0:0:0:0:
358,192,217380,1,8,0:0:0:0:
153,192,217568,1,4,0:0:0:0:
460,192,217568,128,0,219068:0:0:0:0:
358,192,219068,128,0,220568:0:0:0:0:
51,192,220568,128,0,223568:0:0:0:0:
256,192,220568,1,0,0:0:0:0:
460,192,220943,1,0,0:0:0:0:
256,192,221318,1,0,0:0:0:0:
460,192,221693,1,0,0:0:0:0:
256,192,222068,1,0,0:0:0:0:
460,192,222443,1,0,0:0:0:0:
256,192,222818,1,0,0:0:0:0:
153,192,223193,1,0,0:0:0:0:
358,192,223568,1,4,0:0:0:0:
460,192,223568,128,0,224130:0:0:0:0:
358,192,224130,128,0,224693:0:0:0:0:
256,192,224693,128,0,225255:0:0:0:0:
358,192,225255,128,0,225818:0:0:0:0:
460,192,225818,128,0,226193:0:0:0:0:
51,192,226193,1,8,0:0:0:0:
153,192,226568,128,0,227130:0:0:0:0:
256,192,227130,128,0,227693:0:0:0:0:
358,192,227693,128,0,228255:0:0:0:0:
256,192,228255,128,0,228818:0:0:0:0:
153,192,228818,128,0,229193:0:0:0:0:
51,192,229193,1,8,0:0:0:0:
256,192,229568,128,0,230130:0:0:0:0:
358,192,230130,128,0,230693:0:0:0:0:
460,192,230693,128,0,231255:0:0:0:0:
358,192,231255,128,0,231818:0:0:0:0:
256,192,231818,128,0,232193:0:0:0:0:
51,192,232193,1,8,0:0:0:0:
153,192,232568,128,0,233130:0:0:0:0:
256,192,233130,128,0,233693:0:0:0:0:
358,192,233693,128,0,234255:0:0:0:0:
460,192,234255,128,0,234630:0:0:0:0:
51,192,234630,128,0,235005:0:0:0:0:
153,192,235005,1,8,0:0:0:0:
256,192,235193,1,0,0:0:0:0:
358,192,235380,1,8,0:0:0:0:
460,192,235568,128,0,235943:0:0:0:0:
153,192,235568,1,4,0:0:0:0:
51,192,235943,128,0,236318:0:0:0:0:
358,192,236318,128,0,236693:0:0:0:0:
153,192,236693,128,0,237068:0:0:0:0:
460,192,237068,128,0,237443:0:0:0:0:
256,192,237443,128,0,237818:0:0:0:0:
51,192,237818,128,0,238193:0:0:0:0:
256,192,238193,128,0,238568:0:0:0:0:
460,192,238568,128,0,238943:0:0:0:0:
358,192,238943,128,0,239318:0:0:0:0:
51,192,239318,128,0,239693:0:0:0:0:
460,192,239693,1,8,0:0:0:0:
256,192,239880,128,0,240255:0:0:0:0:
460,192,240255,128,0,240630:0:0:0:0:
256,192,240630,128,0,241005:0:0:0:0:
51,192,241005,128,0,241380:0:0:0:0:
153,192,241380,1,8,0:0:0:0:
358,192,241568,1,4,0:0:0:0:
460,192,241568,1,0,0:0:0:0:
256,192,241755,1,0,0:0:0:0:
153,192,241943,1,8,0:0:0:0:
51,192,242130,128,0,242505:0:0:0:0:
358,192,242505,128,0,242880:0:0:0:0:
153,192,242880,128,0,243255:0:0:0:0:
358,192,243255,128,0,243630:0:0:0:0:
51,192,243630,128,0,244005:0:0:0:0:
153,192,244005,128,0,244380:0:0:0:0:
358,192,244380,1,0,0:0:0:0:
51,192,244568,1,0,0:0:0:0:
460,192,244755,1,0,0:0:0:0:
153,192,244943,1,8,0:0:0:0:
256,192,245130,1,0,0:0:0:0:
358,192,245505,128,0,245880:0:0:0:0:
153,192,245880,128,0,246255:0:0:0:0:
358,192,246255,128,0,246630:0:0:0:0:
153,192,246630,128,0,247005:0:0:0:0:
460,192,247005,128,0,247568:0:0:0:0:
256,192,247568,128,0,253568:0:0:0:0:
51,192,247568,1,4,0:0:0:0:
