osu file format v10

[General]
AudioFilename: Tetsuryu -Kurogane-.mp3
AudioLeadIn: 1004
PreviewTime: 77365
Countdown: 1
SampleSet: None
StackLeniency: 0.7
Mode: 0
LetterboxInBreaks: 1

[Editor]
DistanceSpacing: 0.9
BeatDivisor: 4
GridSize: 4

[Metadata]
Title:Tetsuryu -Kurogane-
TitleUnicode:
Artist:Takanashi Yasuharu
ArtistUnicode:
Creator:_Kiva
Version:kind
Source:Fairy Tail
Tags:
BeatmapID:195965
BeatmapSetID:67450

[Difficulty]
HPDrainRate:7
CircleSize:4
OverallDifficulty:8
ApproachRate:9
SliderMultiplier:1.8
SliderTickRate:2

[Events]
//Background and Video events
0,0,"31 (2).jpg"
//Break Periods
2,38685,44125
//Storyboard Layer 0 (Background)
//Storyboard Layer 1 (Fail)
//Storyboard Layer 2 (Pass)
//Storyboard Layer 3 (Foreground)
//Storyboard Sound Samples
//Background Colour Transformations
3,100,163,162,255

[TimingPoints]
565,240,4,1,1,100,1,0
685,-100,4,2,1,100,0,0
2485,-100,4,1,1,100,0,0
2605,-100,4,2,1,100,0,0
3445,-100,4,1,1,60,0,0
3685,-100,4,1,1,70,0,0
3925,-100,4,1,1,80,0,0
4405,-100,4,2,1,80,0,0
5365,-100,4,1,1,80,0,0
5605,-100,4,2,1,80,0,0
6325,-100,4,1,1,70,0,0
6805,-100,4,1,1,60,0,0
16165,-100,4,2,1,60,0,0
16405,-100,4,2,1,60,0,0
21445,-100,4,1,1,60,0,0
21685,-133.333333333333,4,1,1,60,0,0
23605,-100,4,1,1,60,0,0
23725,-100,4,2,1,60,0,0
77125,-66.6666666666667,4,2,1,60,0,0
77365,-100,4,2,1,60,0,0

[Colours]
Combo1 : 255,128,64
Combo2 : 0,128,64
Combo3 : 0,128,192
Combo4 : 255,128,192

[HitObjects]
200,164,565,6,0,B|152:172|132:220,1,90,4|0,0:0|0:0,0:0:0
64,244,805,2,0,B|60:188|100:144,1,90,2|0,0:0|0:0,0:0:0
224,92,1045,2,0,B|272:120|272:184,1,90
252,236,1285,2,0,B|192:240|172:300,1,90,2|0,0:0|0:0,0:0:0
256,344,1525,2,0,B|328:280|460:312,2,180,4|2|0,0:0|0:0|0:0,0:0:0
256,344,2245,1,2,0:0:0
360,244,2485,6,0,B|368:176|432:164,1,90,4|0,0:0|0:0,0:0:0
420,100,2725,2,0,B|484:120|480:200,1,90,2|0,0:0|0:0,0:0:0
352,120,2965,2,0,B|344:60|400:20,1,90
476,160,3205,2,0,B|480:224|432:272,1,90,2|0,0:0|0:0,0:0:0
396,328,3445,5,8,0:0:0
256,344,3685,1,0,0:0:0
112,324,3925,1,0,0:0:0
8,224,4165,1,8,0:0:0
8,224,4285,1,8,0:0:0
8,224,4405,6,0,B|88:152,1,90
208,96,4645,2,0,B|148:120|148:192,1,90,2|0,0:0|0:0,0:0:0
216,252,4885,2,0,B|200:192|232:152,1,90
336,144,5125,2,0,B|324:200|260:216,1,90,2|0,0:0|0:0,0:0:0
140,232,5365,2,0,B|56:248|12:376,2,180,4|2|4,0:0|0:0|0:0,0:0:0
140,232,6085,1,2,0:0:0
264,156,6325,5,0,0:0:0
336,144,6445,1,0,0:0:0
408,160,6565,1,0,0:0:0
468,196,6685,1,0,0:0:0
444,328,6805,2,0,B|480:280,2,45
388,280,7045,1,0,0:0:0
356,216,7165,1,0,0:0:0
336,144,7285,2,0,B|256:76|136:132,1,180,4|4,0:0|0:0,0:0:0
40,52,7765,5,0,0:0:0
20,64,7885,5,0,0:0:0
88,152,8005,5,0,0:0:0
104,164,8125,5,0,0:0:0
108,344,8245,6,0,B|168:260|280:264,1,180,4|8,0:0|0:0,0:0:0
512,236,8725,1,0,0:0:0
460,284,8845,1,0,0:0:0
392,304,8965,1,0,0:0:0
320,292,9085,1,0,0:0:0
260,264,9205,6,0,B|344:192|312:84,1,180,0|8,0:0|0:0,0:0:0
72,56,9685,1,0,0:0:0
128,104,9805,1,0,0:0:0
156,172,9925,1,0,0:0:0
168,244,10045,1,0,0:0:0
156,316,10165,2,0,B|248:268|352:328,1,180,0|8,0:0|0:0,0:0:0
472,112,10645,5,0,0:0:0
400,104,10765,1,0,0:0:0
328,116,10885,1,0,0:0:0
268,156,11005,1,0,0:0:0
240,224,11125,1,4,0:0:0
232,248,11485,1,4,0:0:0
224,272,11845,6,0,B|132:232|60:344,2,180,0|0|8,0:0|0:0|0:0,0:0:0
408,192,12565,1,0,0:0:0
360,328,12685,1,0,0:0:0
352,196,12805,1,0,0:0:0
304,332,12925,1,0,0:0:0
300,204,13045,2,0,B|256:308|128:292,1,180,0|8,0:0|0:0,0:0:0
196,144,13525,5,0,0:0:0
84,236,13645,1,0,0:0:0
188,96,13765,1,0,0:0:0
76,188,13885,1,0,0:0:0
180,48,14005,2,0,B|124:132|20:116,1,180,0|8,0:0|0:0,0:0:0
24,116,14485,5,0,0:0:0
96,136,14605,1,0,0:0:0
156,176,14725,1,0,0:0:0
208,228,14845,1,0,0:0:0
256,340,14965,5,0,0:0:0
256,340,15085,1,0,0:0:0
256,340,15205,1,0,0:0:0
396,304,15325,5,0,0:0:0
396,304,15445,1,0,0:0:0
396,304,15565,1,0,0:0:0
484,192,15685,5,0,0:0:0
484,192,15805,1,0,0:0:0
484,192,15925,2,0,B|392:232|420:356,1,180,0|2,0:0|0:0,0:0:0
360,216,16405,6,0,B|336:128|420:56,1,180,0|2,0:0|0:0,0:0:0
208,128,16885,6,0,B|88:120,1,90,0|0,0:0|0:0,0:0:0
92,52,17125,2,0,B|80:152,1,90,2|0,0:0|0:0,0:0:0
16,176,17365,2,0,B|120:180,1,90
136,248,17605,2,0,B|140:144,1,90,2|0,0:0|0:0,0:0:0
296,340,17845,6,0,B|308:236|416:220,1,180,0|2,0:0|0:0,0:0:0
416,44,18325,6,0,B|324:96|352:224,1,180,0|2,0:0|0:0,0:0:0
376,340,18805,2,0,B|316:248,1,90
264,176,19045,2,0,B|236:260,1,90,2|0,0:0|0:0,0:0:0
156,336,19285,2,0,B|136:240,1,90
64,160,19525,2,0,B|60:260,1,90,2|0,0:0|0:0,0:0:0
232,264,19765,6,0,B|328:244|400:356,2,180,0|2|0,0:0|0:0|0:0,0:0:0
140,248,20485,1,2,0:0:0
236,52,20725,6,0,B|180:60|152:112,1,90
36,100,20965,2,0,B|88:100|120:152,1,90,2|0,0:0|0:0,0:0:0
232,180,21205,2,0,B|180:168|128:220,1,90
40,268,21445,5,0,0:0:0
40,268,21565,1,0,0:0:0
40,268,21685,2,0,B|176:220|240:308,1,202.49999396503
448,252,22405,1,0,0:0:0
428,84,22645,6,0,B|328:152|356:280,1,202.49999396503
354,258,23365,1,4,0:0:0
144,308,23605,6,0,B|164:252|224:248,1,90
272,284,23845,2,0,B|288:176,1,90,2|0,0:0|0:0,0:0:0
420,116,24085,6,0,B|392:168|332:164,1,90
340,92,24325,2,0,B|244:92,1,90,2|0,0:0|0:0,0:0:0
76,156,24565,6,0,B|136:156|164:208,1,90
176,332,24805,2,0,B|192:276|264:260,1,90,2|0,0:0|0:0,0:0:0
344,168,25045,2,0,B|360:232|308:272,1,90,0|0,0:0|0:0,0:0:0
352,344,25285,2,0,B|380:292|452:300,1,90,2|0,0:0|0:0,0:0:0
496,292,25525,5,0,0:0:0
484,220,25645,1,0,0:0:0
460,152,25765,1,2,0:0:0
416,96,25885,1,0,0:0:0
368,152,26005,5,0,0:0:0
300,180,26125,1,0,0:0:0
228,188,26245,1,2,0:0:0
156,180,26365,1,0,0:0:0
40,120,26485,6,0,B|64:76,2,45
76,184,26725,2,0,B|84:252,2,45,2|0|0,0:0|0:0|0:0,0:0:0
88,256,26965,2,0,B|112:304,2,45
128,316,27205,2,0,B|176:348,2,45,2|0|0,0:0|0:0|0:0,0:0:0
160,252,27445,6,0,B|220:180|348:200,1,180,0|2,0:0|0:0,0:0:0
392,216,27805,1,0,0:0:0
340,264,27925,2,0,B|308:156|384:84,1,180,0|2,0:0|0:0,0:0:0
440,72,28285,1,0,0:0:0
372,95,28405,6,0,B|276:144,1,90
148,160,28645,2,0,B|208:56,1,90,2|0,0:0|0:0,0:0:0
56,248,28885,2,0,B|32:136,1,90
16,304,29125,2,0,B|96:244|224:272,1,180,2|0,0:0|0:0,0:0:0
164,332,29485,1,0,0:0:0
236,324,29605,2,0,B|324:260|284:140,1,180,2|0,0:0|0:0,0:0:0
276,96,29965,1,0,0:0:0
216,136,30085,1,2,0:0:0
148,160,30205,1,0,0:0:0
68,168,30325,6,0,B|168:156|244:256,1,180,0|4,0:0|0:0,0:0:0
288,272,30685,1,0,0:0:0
356,352,30805,2,0,B|464:320|464:184,1,180,0|4,0:0|0:0,0:0:0
400,88,31285,6,0,B|364:36,2,45
328,108,31525,2,0,B|284:88,2,45,8|0|0,0:0|0:0|0:0,0:0:0
284,164,31765,2,0,B|240:164,2,45
268,236,32005,2,0,B|228:256,2,45,8|0|0,0:0|0:0|0:0,0:0:0
164,304,32245,6,0,B|120:280,2,45
108,260,32485,2,0,B|88:196,2,45,8|0|0,0:0|0:0|0:0,0:0:0
96,188,32725,2,0,B|100:124,2,45
108,116,32965,2,0,B|140:72,2,45,8|0|0,0:0|0:0|0:0,0:0:0
148,56,33205,5,0,0:0:0
220,44,33325,1,0,0:0:0
292,52,33445,1,8,0:0:0
356,84,33565,1,0,0:0:0
484,148,33685,5,0,0:0:0
412,156,33805,1,0,0:0:0
352,196,33925,1,8,0:0:0
284,220,34045,1,0,0:0:0
244,280,34165,2,0,B|224:336,2,45
172,272,34405,2,0,B|152:328,2,45,8|0|0,0:0|0:0|0:0,0:0:0
104,252,34645,2,0,B|80:304,2,45
44,216,34885,2,0,B|16:268,2,45,8|0|0,0:0|0:0|0:0,0:0:0
64,80,35125,6,0,B|184:88|216:216,1,180,0|8,0:0|0:0,0:0:0
396,112,35605,5,0,0:0:0
324,108,35725,1,0,0:0:0
256,128,35845,1,8,0:0:0
204,176,35965,1,0,0:0:0
60,244,36085,6,0,B|64:324|152:328,1,135
184,328,36325,2,0,B|232:272|304:276,1,135,8|0,0:0|0:0,0:0:0
336,288,36565,2,0,B|440:308|504:196,1,180,0|8,0:0|0:0,0:0:0
436,44,37045,6,0,B|384:224,1,180,0|12,0:0|0:0,0:0:0
316,212,37405,1,0,0:0:0
288,108,37525,2,0,B|196:108|124:208,1,180,0|12,0:0|0:0,0:0:0
112,260,37885,1,0,0:0:0
220,356,38005,2,0,B|264:264|376:272,2,180,0|8|4,0:0|0:0|0:0,0:0:0
352,80,44725,5,0,0:0:0
352,80,44845,2,0,B|304:176|168:160,1,180,2|4,0:0|0:0,0:0:0
120,84,45445,1,8,0:0:0
168,332,45685,1,0,0:0:0
168,332,45805,2,0,B|64:292|64:176,1,180
12,88,46285,1,2,0:0:0
12,88,46405,1,6,0:0:0
136,192,46645,6,0,B|172:152|236:160,1,90,0|0,0:0|0:0,0:0:0
280,208,46885,2,0,B|296:104,1,90,2|0,0:0|0:0,0:0:0
440,116,47125,2,0,B|419:78|363:74,1,90
368,156,47365,2,0,B|372:256,1,90,2|0,0:0|0:0,0:0:0
312,340,47605,6,0,B|268:308|196:348,1,90
64,280,47845,2,0,B|128:264|184:312,1,90,2|0,0:0|0:0,0:0:0
264,136,48085,2,0,B|200:152|180:216,1,90
72,160,48325,2,0,B|112:56,1,90,2|0,0:0|0:0,0:0:0
184,56,48565,5,0,0:0:0
264,56,48685,1,0,0:0:0
344,76,48805,1,2,0:0:0
416,112,48925,1,0,0:0:0
448,188,49045,5,0,0:0:0
368,200,49165,1,0,0:0:0
300,244,49285,1,2,0:0:0
248,308,49405,1,0,0:0:0
116,336,49525,6,0,B|144:292,2,45
76,264,49765,2,0,B|68:208,2,45,2|0|0,0:0|0:0|0:0,0:0:0
100,188,50005,2,0,B|120:136,2,45
88,108,50245,2,0,B|80:56,2,45,2|0|0,0:0|0:0|0:0,0:0:0
368,228,50485,6,0,B|308:156|180:176,1,180,0|2,0:0|0:0,0:0:0
232,252,50845,1,0,0:0:0
152,232,50965,2,0,B|120:124|196:52,1,180,0|2,0:0|0:0,0:0:0
184,64,51325,1,0,0:0:0
260,40,51445,6,0,B|356:89,1,90
460,144,51685,2,0,B|400:40,1,90,2|0,0:0|0:0,0:0:0
472,224,51925,2,0,B|496:112,1,90
512,280,52165,2,0,B|432:220|304:248,1,180,2|0,0:0|0:0,0:0:0
364,308,52525,1,0,0:0:0
292,300,52645,2,0,B|204:236|244:116,1,180,2|0,0:0|0:0,0:0:0
252,72,53005,1,0,0:0:0
332,72,53125,1,2,0:0:0
408,96,53245,1,0,0:0:0
468,148,53365,6,0,B|368:136|292:236,1,180,0|4,0:0|0:0,0:0:0
240,248,53725,1,0,0:0:0
172,328,53845,2,0,B|64:296|64:160,1,180,0|4,0:0|0:0,0:0:0
144,56,54325,6,0,B|96:48,2,45
216,96,54565,2,0,B|264:104,2,45,8|0|0,0:0|0:0|0:0,0:0:0
356,176,54805,2,0,B|300:164,2,45,0|0|0,0:0|0:0|0:0,0:0:0
420,248,55045,2,0,B|472:264,2,45,8|0|0,0:0|0:0|0:0,0:0:0
340,348,55285,6,0,B|296:308,2,45
276,296,55525,2,0,B|216:272,2,45,8|0|0,0:0|0:0|0:0,0:0:0
196,276,55765,2,0,B|136:284,2,45
116,288,56005,2,0,B|68:320,2,45,8|0|0,0:0|0:0|0:0,0:0:0
196,276,56245,5,0,0:0:0
140,220,56365,1,0,0:0:0
60,212,56485,2,0,B|8:184|20:124,1,90,8|0,0:0|0:0,0:0:0
44,60,56725,1,0,0:0:0
124,40,56845,1,0,0:0:0
96,116,56965,2,0,B|132:156|204:120,1,90,8|0,0:0|0:0,0:0:0
256,108,57205,6,0,B|308:84,2,45
336,112,57445,6,0,B|384:92,2,45,8|0|0,0:0|0:0|0:0,0:0:0
356,192,57685,6,0,B|408:176,2,45
420,244,57925,6,0,B|472:256,2,45,8|0|0,0:0|0:0|0:0,0:0:0
344,272,58165,6,0,B|276:348|160:312,1,180,0|8,0:0|0:0,0:0:0
28,188,58645,1,0,0:0:0
100,228,58765,1,0,0:0:0
180,248,58885,1,8,0:0:0
260,248,59005,1,0,0:0:0
336,220,59125,2,0,B|232:220|220:156,1,135
248,136,59365,2,0,B|244:224|128:208,1,135,8|0,0:0|0:0,0:0:0
156,168,59605,2,0,B|72:336,1,180,0|8,0:0|0:0,0:0:0
320,300,60085,5,0,0:0:0
320,300,60325,1,8,0:0:0
336,220,60445,1,0,0:0:0
260,248,60565,1,8,0:0:0
152,328,60805,1,0,0:0:0
92,272,60925,1,0,0:0:0
68,196,61045,2,0,B|168:216|248:136,2,180,0|8|4,0:0|0:0|0:0,0:0:0
68,196,62005,5,0,0:0:0
108,116,62245,2,0,B|68:196,1,90
224,128,62485,2,0,B|152:180,1,90
180,316,62725,2,0,B|128:304|120:244,1,90
252,236,62965,5,0,0:0:0
164,220,63205,2,0,B|264:236,1,90
360,332,63445,2,0,B|336:228,1,90
304,172,63685,2,0,B|372:152|420:208,1,90
456,280,63925,5,6,0:0:0
456,280,64045,1,2,0:0:0
456,280,64165,1,2,0:0:0
456,280,64285,1,0,0:0:0
272,296,64405,5,6,0:0:0
272,296,64525,1,2,0:0:0
272,296,64645,1,2,0:0:0
272,296,64765,1,0,0:0:0
100,236,64885,5,6,0:0:0
100,236,65005,1,2,0:0:0
100,236,65125,1,2,0:0:0
100,236,65245,1,2,0:0:0
304,172,65365,5,2,0:0:0
304,172,65485,1,2,0:0:0
304,172,65605,1,2,0:0:0
304,172,65725,1,0,0:0:0
144,100,65845,5,0,0:0:0
60,136,66085,2,0,B|152:96,1,90
216,60,66325,2,0,B|232:128|176:176,1,90
204,224,66565,2,0,B|144:228|124:152,1,90
304,172,66805,1,0,0:0:0
336,256,67045,6,0,B|304:168,1,90
468,108,67285,2,0,B|408:188,1,90
504,344,67525,2,0,B|424:280,1,90
304,172,67765,5,0,0:0:0
302,172,67885,1,0,0:0:0
304,172,68005,1,0,0:0:0
304,172,68125,1,0,0:0:0
200,212,68245,5,0,0:0:0
200,212,68365,1,0,0:0:0
200,212,68485,1,0,0:0:0
200,212,68605,1,0,0:0:0
88,208,68725,5,0,0:0:0
88,208,68845,1,0,0:0:0
88,208,68965,1,0,0:0:0
88,208,69085,1,0,0:0:0
216,60,69205,5,0,0:0:0
216,60,69325,1,0,0:0:0
216,60,69445,1,0,0:0:0
216,60,69565,1,0,0:0:0
216,60,69685,5,0,0:0:0
172,136,69925,2,0,B|220:56,1,90
304,216,70165,2,0,B|312:164|268:124,1,90
156,292,70405,2,0,B|168:228|220:200,1,90
288,324,70645,1,0,0:0:0
372,292,70885,2,0,B|272:332,1,90
396,216,71125,1,0,0:0:0
372,140,71245,1,0,0:0:0
464,136,71365,2,0,B|364:140,1,90
272,196,71605,5,2,0:0:0
272,196,71725,1,0,0:0:0
272,196,71845,1,0,0:0:0
272,196,71965,1,0,0:0:0
216,248,72085,5,2,0:0:0
216,248,72205,1,0,0:0:0
216,248,72325,1,0,0:0:0
216,248,72445,1,0,0:0:0
156,296,72565,5,2,0:0:0
156,296,72685,1,0,0:0:0
156,296,72805,1,0,0:0:0
156,296,72925,1,0,0:0:0
372,292,73045,5,2,0:0:0
372,292,73165,1,0,0:0:0
372,292,73285,1,0,0:0:0
372,292,73405,1,0,0:0:0
144,220,73525,6,0,B|76:204|80:132,1,90
216,92,73765,2,0,B|160:92|148:160,1,90,4|0,0:0|0:0,0:0:0
220,188,74005,2,0,B|272:196|288:256,1,90
368,192,74245,2,0,B|400:152|472:168,1,90,4|0,0:0|0:0,0:0:0
449,164,74485,1,2,0:0:0
192,320,74845,1,2,0:0:0
449,164,75205,1,2,0:0:0
84,280,75445,6,0,B|260:336|312:148,1,270
300,148,76165,1,0,0:0:0
192,68,76405,6,0,B|372:80|372:264,1,270
424,312,77125,6,0,B|296:312,1,90,4|0,0:0|0:0,0:0:0
