osu file format v12

[General]
AudioFilename: 01 - Kurogane.mp3
AudioLeadIn: 1996
PreviewTime: 77377
Countdown: 0
SampleSet: Normal
StackLeniency: 0.7
Mode: 1
LetterboxInBreaks: 0
CountdownOffset: 3

[Editor]
DistanceSpacing: 1
BeatDivisor: 4
GridSize: 8

[Metadata]
Title:Kurogane
TitleUnicode:Kurogane
Artist:Takanashi Yasuharu
ArtistUnicode:Takanashi Yasuharu
Creator:Drianel
Version:Taikin Muzukashii
Source:Fairy Tail
Tags:Fairy Tail kurogane takanashi yasuharu Drianel Kin
BeatmapID:238040
BeatmapSetID:83469

[Difficulty]
HPDrainRate:4
CircleSize:4
OverallDifficulty:4
ApproachRate:5
SliderMultiplier:1.59999990463257
SliderTickRate:1

[Events]
//Background and Video events
0,0,"Taiko BG.jpg",1,1
//Break Periods
//Storyboard Layer 0 (Background)
//Storyboard Layer 1 (Fail)
//Storyboard Layer 2 (Pass)
//Storyboard Layer 3 (Foreground)
//Storyboard Sound Samples
//Background Colour Transformations
3,100,163,162,255

[TimingPoints]
577,480,4,1,0,70,1,0
77377,-80,4,1,0,70,0,1
108097,-100,4,1,0,70,0,0

[HitObjects]
256,192,577,1,4,0:0:0:0:
256,192,817,1,8,0:0:0:0:
256,192,937,1,8,0:0:0:0:
256,192,1057,1,8,0:0:0:0:
256,192,1297,1,0,0:0:0:0:
256,192,1537,1,8,0:0:0:0:
256,192,1777,1,0,0:0:0:0:
256,192,2017,1,0,0:0:0:0:
256,192,2497,1,4,0:0:0:0:
256,192,2737,1,0,0:0:0:0:
256,192,2857,1,0,0:0:0:0:
256,192,2977,1,0,0:0:0:0:
256,192,3217,1,8,0:0:0:0:
256,192,3457,1,8,0:0:0:0:
256,192,3697,1,0,0:0:0:0:
256,192,3937,1,0,0:0:0:0:
256,192,4417,1,14,0:0:0:0:
256,192,4657,1,0,0:0:0:0:
256,192,4777,1,0,0:0:0:0:
256,192,4897,1,0,0:0:0:0:
256,192,5137,1,8,0:0:0:0:
256,192,5377,1,0,0:0:0:0:
256,192,5617,1,8,0:0:0:0:
256,192,5857,1,0,0:0:0:0:
256,192,6337,1,4,0:0:0:0:
256,192,6577,1,8,0:0:0:0:
256,192,6817,1,0,0:0:0:0:
256,192,7057,1,0,0:0:0:0:
256,192,7297,1,14,0:0:0:0:
256,192,7537,1,4,0:0:0:0:
256,192,7777,1,14,0:0:0:0:
256,192,8257,1,0,0:0:0:0:
256,192,8497,1,8,0:0:0:0:
256,192,8737,1,0,0:0:0:0:
256,192,8857,1,0,0:0:0:0:
256,192,8977,1,8,0:0:0:0:
256,192,9217,1,0,0:0:0:0:
256,192,9457,1,8,0:0:0:0:
256,192,9697,1,0,0:0:0:0:
256,192,10177,1,0,0:0:0:0:
256,192,10417,1,8,0:0:0:0:
256,192,10657,1,8,0:0:0:0:
256,192,10777,1,8,0:0:0:0:
256,192,10897,1,8,0:0:0:0:
256,192,11137,1,4,0:0:0:0:
256,192,11497,1,14,0:0:0:0:
256,192,11857,1,4,0:0:0:0:
256,192,12097,1,0,0:0:0:0:
256,192,12337,1,8,0:0:0:0:
256,192,12457,1,0,0:0:0:0:
256,192,12697,1,0,0:0:0:0:
256,192,12817,1,8,0:0:0:0:
256,192,13057,1,0,0:0:0:0:
256,192,13297,1,8,0:0:0:0:
256,192,13777,1,8,0:0:0:0:
256,192,14017,1,0,0:0:0:0:
256,192,14257,1,4,0:0:0:0:
256,192,14737,1,4,0:0:0:0:
256,192,14977,1,14,0:0:0:0:
256,192,15337,1,14,0:0:0:0:
256,192,15697,1,14,0:0:0:0:
256,192,15937,1,0,0:0:0:0:
256,192,16177,1,0,0:0:0:0:
256,192,16297,1,0,0:0:0:0:
256,192,16417,1,8,0:0:0:0:
256,192,16657,1,0,0:0:0:0:
256,192,16897,1,8,0:0:0:0:
256,192,17137,1,8,0:0:0:0:
256,192,17377,1,0,0:0:0:0:
256,192,17617,1,0,0:0:0:0:
256,192,17857,1,8,0:0:0:0:
256,192,18337,1,8,0:0:0:0:
256,192,18817,1,8,0:0:0:0:
256,192,19057,1,0,0:0:0:0:
256,192,19297,1,8,0:0:0:0:
256,192,19537,1,0,0:0:0:0:
256,192,19777,1,14,0:0:0:0:
256,192,20257,1,8,0:0:0:0:
256,192,20737,1,0,0:0:0:0:
256,192,20977,1,8,0:0:0:0:
256,192,21217,1,8,0:0:0:0:
256,192,21457,1,0,0:0:0:0:
256,192,21697,1,4,0:0:0:0:
256,192,22057,1,4,0:0:0:0:
256,192,22417,1,4,0:0:0:0:
256,192,22657,1,14,0:0:0:0:
256,192,23017,1,14,0:0:0:0:
256,192,23377,1,8,0:0:0:0:
256,192,23617,1,4,0:0:0:0:
256,192,23857,1,8,0:0:0:0:
256,192,24097,1,0,0:0:0:0:
256,192,24217,1,0,0:0:0:0:
256,192,24337,1,8,0:0:0:0:
256,192,24577,1,0,0:0:0:0:
256,192,24817,1,8,0:0:0:0:
256,192,25297,1,8,0:0:0:0:
256,192,25537,2,0,B|424:192|424:192|424:80,1,279.9999833107
256,192,26977,1,0,0:0:0:0:
256,192,27217,1,8,0:0:0:0:
256,192,27457,1,0,0:0:0:0:
256,192,27937,1,8,0:0:0:0:
256,192,28417,1,8,0:0:0:0:
256,192,28657,1,0,0:0:0:0:
256,192,28897,1,8,0:0:0:0:
256,192,29137,1,0,0:0:0:0:
256,192,29377,1,0,0:0:0:0:
256,192,29857,1,8,0:0:0:0:
256,192,30337,1,8,0:0:0:0:
256,192,30577,1,0,0:0:0:0:
256,192,30697,1,0,0:0:0:0:
256,192,30817,1,8,0:0:0:0:
256,192,31057,1,8,0:0:0:0:
256,192,31297,1,4,0:0:0:0:
256,192,31777,1,0,0:0:0:0:
256,192,32017,1,8,0:0:0:0:
256,192,32257,1,0,0:0:0:0:
256,192,32497,1,8,0:0:0:0:
256,192,32617,1,0,0:0:0:0:
256,192,32737,1,0,0:0:0:0:
256,192,32977,1,8,0:0:0:0:
256,192,33217,2,0,B|320:200|320:200|368:128,1,119.999992847443
256,192,34177,1,0,0:0:0:0:
256,192,34417,1,0,0:0:0:0:
256,192,34657,1,8,0:0:0:0:
256,192,34897,1,8,0:0:0:0:
256,192,35137,1,0,0:0:0:0:
256,192,35617,1,8,0:0:0:0:
256,192,36097,1,8,0:0:0:0:
256,192,36337,1,0,0:0:0:0:
256,192,36577,1,8,0:0:0:0:
256,192,37057,1,8,0:0:0:0:
256,192,37297,1,8,0:0:0:0:
256,192,37417,1,8,0:0:0:0:
256,192,37537,1,0,0:0:0:0:
256,192,37777,1,8,0:0:0:0:
256,192,38017,1,8,0:0:0:0:
256,192,38257,1,0,0:0:0:0:
256,192,38497,1,8,0:0:0:0:
256,192,38977,1,0,0:0:0:0:
256,192,39457,1,8,0:0:0:0:
256,192,39937,1,8,0:0:0:0:
256,192,40177,1,0,0:0:0:0:
256,192,40417,1,0,0:0:0:0:
256,192,40657,1,8,0:0:0:0:
256,192,40897,1,8,0:0:0:0:
256,192,41377,1,8,0:0:0:0:
256,192,41857,1,8,0:0:0:0:
256,192,42097,1,0,0:0:0:0:
256,192,42337,1,0,0:0:0:0:
256,192,42577,1,0,0:0:0:0:
256,192,42817,1,14,0:0:0:0:
256,192,43297,1,0,0:0:0:0:
256,192,43777,1,8,0:0:0:0:
256,192,44017,1,0,0:0:0:0:
256,192,44257,1,8,0:0:0:0:
256,192,44497,1,0,0:0:0:0:
256,192,44737,1,4,0:0:0:0:
256,192,45097,1,4,0:0:0:0:
256,192,45457,1,4,0:0:0:0:
256,192,45697,1,14,0:0:0:0:
256,192,46057,1,14,0:0:0:0:
256,192,46417,1,8,0:0:0:0:
256,192,46657,1,4,0:0:0:0:
256,192,47137,1,0,0:0:0:0:
256,192,47377,1,8,0:0:0:0:
256,192,47617,1,8,0:0:0:0:
256,192,47857,1,0,0:0:0:0:
256,192,48097,1,8,0:0:0:0:
256,192,48337,1,0,0:0:0:0:
256,192,48577,2,0,L|400:192,1,119.999992847443
256,192,49537,1,8,0:0:0:0:
256,192,49777,1,0,0:0:0:0:
256,192,50017,1,8,0:0:0:0:
256,192,50257,1,8,0:0:0:0:
256,192,50497,1,0,0:0:0:0:
256,192,50977,1,8,0:0:0:0:
256,192,51457,1,0,0:0:0:0:
256,192,51697,1,8,0:0:0:0:
256,192,51937,1,8,0:0:0:0:
256,192,52177,1,0,0:0:0:0:
256,192,52417,1,8,0:0:0:0:
256,192,52897,1,0,0:0:0:0:
256,192,53377,1,8,0:0:0:0:
256,192,53617,1,0,0:0:0:0:
256,192,53737,1,0,0:0:0:0:
256,192,53857,1,8,0:0:0:0:
256,192,54097,1,8,0:0:0:0:
256,192,54337,1,4,0:0:0:0:
256,192,54817,1,0,0:0:0:0:
256,192,54937,1,0,0:0:0:0:
256,192,55057,1,8,0:0:0:0:
256,192,55297,1,8,0:0:0:0:
256,192,55537,1,0,0:0:0:0:
256,192,55777,1,8,0:0:0:0:
256,192,56017,1,0,0:0:0:0:
256,192,56257,2,0,L|408:192,1,119.999992847443
256,192,57217,1,0,0:0:0:0:
256,192,57337,1,0,0:0:0:0:
256,192,57457,1,0,0:0:0:0:
256,192,57697,1,8,0:0:0:0:
256,192,57937,1,8,0:0:0:0:
256,192,58177,1,0,0:0:0:0:
256,192,58657,1,8,0:0:0:0:
256,192,59137,1,8,0:0:0:0:
256,192,59377,1,0,0:0:0:0:
256,192,59617,1,8,0:0:0:0:
256,192,60097,1,8,0:0:0:0:
256,192,60337,1,8,0:0:0:0:
256,192,60457,1,0,0:0:0:0:
256,192,60577,1,0,0:0:0:0:
256,192,60817,1,14,0:0:0:0:
256,192,61057,1,0,0:0:0:0:
256,192,61297,1,14,0:0:0:0:
256,192,61537,1,0,0:0:0:0:
256,192,62017,1,4,0:0:0:0:
256,192,62497,1,0,0:0:0:0:
256,192,62737,1,8,0:0:0:0:
256,192,62977,1,0,0:0:0:0:
256,192,63217,1,0,0:0:0:0:
256,192,63337,1,0,0:0:0:0:
256,192,63457,1,0,0:0:0:0:
256,192,63697,1,8,0:0:0:0:
256,192,63937,1,0,0:0:0:0:
256,192,64417,1,8,0:0:0:0:
256,192,64657,1,0,0:0:0:0:
256,192,64897,1,8,0:0:0:0:
256,192,65137,1,0,0:0:0:0:
256,192,65377,1,8,0:0:0:0:
256,192,65497,1,8,0:0:0:0:
256,192,65617,1,8,0:0:0:0:
256,192,65857,1,8,0:0:0:0:
256,192,66337,1,0,0:0:0:0:
256,192,66577,1,8,0:0:0:0:
256,192,66817,1,0,0:0:0:0:
256,192,67057,1,0,0:0:0:0:
256,192,67297,1,8,0:0:0:0:
256,192,67417,1,8,0:0:0:0:
256,192,67537,1,0,0:0:0:0:
256,192,67777,1,8,0:0:0:0:
256,192,68017,1,8,0:0:0:0:
256,192,68137,1,8,0:0:0:0:
256,192,68257,1,8,0:0:0:0:
256,192,68497,1,0,0:0:0:0:
256,192,68737,1,8,0:0:0:0:
256,192,69217,1,0,0:0:0:0:
256,192,69697,1,4,0:0:0:0:
256,192,70177,1,0,0:0:0:0:
256,192,70417,1,8,0:0:0:0:
256,192,70657,1,0,0:0:0:0:
256,192,70897,1,8,0:0:0:0:
256,192,71017,1,0,0:0:0:0:
256,192,71137,1,0,0:0:0:0:
256,192,71377,1,8,0:0:0:0:
256,192,71617,1,4,0:0:0:0:
256,192,72097,1,8,0:0:0:0:
256,192,72577,1,8,0:0:0:0:
256,192,72817,1,0,0:0:0:0:
256,192,73057,1,8,0:0:0:0:
256,192,73297,1,8,0:0:0:0:
256,192,73417,1,8,0:0:0:0:
256,192,73537,1,0,0:0:0:0:
256,192,73777,1,0,0:0:0:0:
256,192,74257,1,0,0:0:0:0:
256,192,74497,1,14,0:0:0:0:
256,192,74857,1,0,0:0:0:0:
256,192,75217,1,0,0:0:0:0:
256,192,75457,1,14,0:0:0:0:
256,192,75817,1,4,0:0:0:0:
256,192,76177,1,14,0:0:0:0:
256,192,76417,1,14,0:0:0:0:
256,192,76777,1,8,0:0:0:0:
256,192,77137,1,8,0:0:0:0:
256,192,77377,1,4,0:0:0:0:
256,192,77857,1,8,0:0:0:0:
256,192,77977,1,0,0:0:0:0:
256,192,78097,1,0,0:0:0:0:
256,192,78337,1,8,0:0:0:0:
256,192,78577,1,0,0:0:0:0:
256,192,78817,1,0,0:0:0:0:
256,192,79297,1,8,0:0:0:0:
256,192,79417,1,0,0:0:0:0:
256,192,79537,1,0,0:0:0:0:
256,192,79777,1,8,0:0:0:0:
256,192,80017,1,8,0:0:0:0:
256,192,80257,1,0,0:0:0:0:
256,192,80497,1,8,0:0:0:0:
256,192,80737,1,8,0:0:0:0:
256,192,81217,1,8,0:0:0:0:
256,192,81457,1,0,0:0:0:0:
256,192,81577,1,0,0:0:0:0:
256,192,81697,1,8,0:0:0:0:
256,192,81937,1,0,0:0:0:0:
256,192,82177,1,8,0:0:0:0:
256,192,82417,1,0,0:0:0:0:
256,192,82657,1,0,0:0:0:0:
256,192,82897,1,8,0:0:0:0:
256,192,83137,1,0,0:0:0:0:
256,192,83377,1,14,0:0:0:0:
256,192,83617,1,0,0:0:0:0:
256,192,83857,1,14,0:0:0:0:
256,192,84097,1,0,0:0:0:0:
256,192,84337,1,14,0:0:0:0:
256,192,84577,1,0,0:0:0:0:
256,192,85057,1,4,0:0:0:0:
256,192,85537,1,8,0:0:0:0:
256,192,85657,1,8,0:0:0:0:
256,192,85777,1,8,0:0:0:0:
256,192,86017,1,8,0:0:0:0:
256,192,86257,1,0,0:0:0:0:
256,192,86497,1,0,0:0:0:0:
256,192,86977,1,8,0:0:0:0:
256,192,87217,1,0,0:0:0:0:
256,192,87337,1,0,0:0:0:0:
256,192,87457,1,8,0:0:0:0:
256,192,87697,1,8,0:0:0:0:
256,192,87937,1,8,0:0:0:0:
256,192,88177,1,0,0:0:0:0:
256,192,88417,1,0,0:0:0:0:
256,192,88897,1,8,0:0:0:0:
256,192,89137,1,8,0:0:0:0:
256,192,89257,1,8,0:0:0:0:
256,192,89377,1,8,0:0:0:0:
256,192,89617,1,0,0:0:0:0:
256,192,89857,1,8,0:0:0:0:
256,192,90097,1,0,0:0:0:0:
256,192,90337,1,0,0:0:0:0:
256,192,90817,1,0,0:0:0:0:
256,192,91057,1,8,0:0:0:0:
256,192,91177,1,8,0:0:0:0:
256,192,91297,1,0,0:0:0:0:
256,192,91537,1,8,0:0:0:0:
256,192,91777,1,0,0:0:0:0:
256,192,92017,1,4,0:0:0:0:
256,192,92257,1,14,0:0:0:0:
256,192,92497,1,14,0:0:0:0:
256,192,92737,1,4,0:0:0:0:
256,192,93217,1,8,0:0:0:0:
256,192,93337,1,0,0:0:0:0:
256,192,93457,1,0,0:0:0:0:
256,192,93697,1,8,0:0:0:0:
256,192,93937,1,0,0:0:0:0:
256,192,94177,1,0,0:0:0:0:
256,192,94657,1,0,0:0:0:0:
256,192,94897,1,0,0:0:0:0:
256,192,95017,1,0,0:0:0:0:
256,192,95137,1,8,0:0:0:0:
256,192,95377,1,8,0:0:0:0:
256,192,95617,1,0,0:0:0:0:
256,192,95857,1,8,0:0:0:0:
256,192,96097,1,8,0:0:0:0:
256,192,96577,1,8,0:0:0:0:
256,192,96817,1,8,0:0:0:0:
256,192,96937,1,0,0:0:0:0:
256,192,97057,1,8,0:0:0:0:
256,192,97297,1,8,0:0:0:0:
256,192,97537,1,0,0:0:0:0:
256,192,97777,1,8,0:0:0:0:
256,192,98017,1,8,0:0:0:0:
256,192,98497,1,8,0:0:0:0:
256,192,98737,1,4,0:0:0:0:
256,192,98977,1,8,0:0:0:0:
256,192,99217,1,4,0:0:0:0:
256,192,99457,1,8,0:0:0:0:
256,192,99697,1,0,0:0:0:0:
256,192,99937,1,0,0:0:0:0:
256,192,100177,1,14,0:0:0:0:
256,192,100417,1,4,0:0:0:0:
256,192,100897,1,8,0:0:0:0:
256,192,101017,1,8,0:0:0:0:
256,192,101137,1,0,0:0:0:0:
256,192,101377,1,8,0:0:0:0:
256,192,101617,1,0,0:0:0:0:
256,192,101857,1,0,0:0:0:0:
256,192,102337,1,0,0:0:0:0:
256,192,102577,1,0,0:0:0:0:
256,192,102817,1,8,0:0:0:0:
256,192,103057,1,0,0:0:0:0:
256,192,103177,1,0,0:0:0:0:
256,192,103297,1,8,0:0:0:0:
256,192,103537,1,0,0:0:0:0:
256,192,103777,1,0,0:0:0:0:
256,192,104257,1,8,0:0:0:0:
256,192,104497,1,0,0:0:0:0:
256,192,104617,1,0,0:0:0:0:
256,192,104737,1,8,0:0:0:0:
256,192,104977,1,8,0:0:0:0:
256,192,105217,1,0,0:0:0:0:
256,192,105457,1,14,0:0:0:0:
256,192,105697,1,0,0:0:0:0:
256,192,106177,1,4,0:0:0:0:
256,192,106417,1,8,0:0:0:0:
256,192,106537,1,8,0:0:0:0:
256,192,106657,1,0,0:0:0:0:
256,192,106897,1,8,0:0:0:0:
256,192,107137,1,0,0:0:0:0:
256,192,107377,1,0,0:0:0:0:
256,192,107617,1,8,0:0:0:0:
256,192,108097,1,4,0:0:0:0:
256,192,108577,1,8,0:0:0:0:
256,192,109057,1,8,0:0:0:0:
256,192,109297,1,0,0:0:0:0:
256,192,109537,1,0,0:0:0:0:
256,192,109777,1,0,0:0:0:0:
256,192,110017,1,8,0:0:0:0:
256,192,110497,1,8,0:0:0:0:
256,192,110977,1,8,0:0:0:0:
256,192,111217,1,0,0:0:0:0:
256,192,111457,1,0,0:0:0:0:
256,192,111697,1,8,0:0:0:0:
256,192,111937,1,4,0:0:0:0:
256,192,112417,1,8,0:0:0:0:
256,192,112897,1,8,0:0:0:0:
256,192,113137,1,0,0:0:0:0:
256,192,113377,1,8,0:0:0:0:
256,192,113617,1,0,0:0:0:0:
256,192,113857,1,4,0:0:0:0:
256,192,114217,1,0,0:0:0:0:
256,192,114577,1,0,0:0:0:0:
256,192,114817,1,14,0:0:0:0:
256,192,115177,1,14,0:0:0:0:
256,192,115537,1,8,0:0:0:0:
256,192,115777,1,4,0:0:0:0:
256,192,116257,1,0,0:0:0:0:
256,192,116497,1,8,0:0:0:0:
256,192,116737,1,0,0:0:0:0:
256,192,116857,1,0,0:0:0:0:
256,192,116977,1,8,0:0:0:0:
256,192,117217,1,0,0:0:0:0:
256,192,117697,1,0,0:0:0:0:
256,192,117937,1,8,0:0:0:0:
256,192,118177,1,0,0:0:0:0:
256,192,118417,1,8,0:0:0:0:
256,192,118657,1,14,0:0:0:0:
256,192,119017,1,14,0:0:0:0:
256,192,119377,1,14,0:0:0:0:
256,192,119617,1,4,0:0:0:0:
256,192,120097,1,0,0:0:0:0:
256,192,120337,1,8,0:0:0:0:
256,192,120577,1,8,0:0:0:0:
256,192,120697,1,8,0:0:0:0:
256,192,120817,1,8,0:0:0:0:
256,192,121057,1,0,0:0:0:0:
256,192,121297,1,8,0:0:0:0:
256,192,121777,1,14,0:0:0:0:
256,192,122257,1,14,0:0:0:0:
256,192,122497,1,4,0:0:0:0:
256,192,122857,1,4,0:0:0:0:
256,192,123217,1,0,0:0:0:0:
256,192,123457,1,4,0:0:0:0:
256,192,123937,1,0,0:0:0:0:
256,192,124177,1,8,0:0:0:0:
256,192,124417,1,0,0:0:0:0:
256,192,124657,1,8,0:0:0:0:
256,192,124777,1,8,0:0:0:0:
256,192,124897,1,0,0:0:0:0:
256,192,125137,1,8,0:0:0:0:
256,192,125377,1,0,0:0:0:0:
256,192,125857,1,0,0:0:0:0:
256,192,126097,1,8,0:0:0:0:
256,192,126337,1,4,0:0:0:0:
256,192,126697,1,4,0:0:0:0:
256,192,127057,1,4,0:0:0:0:
256,192,127297,1,0,0:0:0:0:
256,192,127537,1,8,0:0:0:0:
256,192,127777,1,0,0:0:0:0:
256,192,128017,1,8,0:0:0:0:
256,192,128137,1,0,0:0:0:0:
256,192,128377,1,0,0:0:0:0:
256,192,128497,1,8,0:0:0:0:
256,192,128737,1,0,0:0:0:0:
256,192,129217,1,0,0:0:0:0:
256,192,129457,1,14,0:0:0:0:
256,192,129697,1,0,0:0:0:0:
256,192,129937,1,14,0:0:0:0:
256,192,130177,2,0,L|392:128,1,139.999990463257
256,192,131137,1,4,0:0:0:0:
256,192,132097,1,8,0:0:0:0:
256,192,132337,1,8,0:0:0:0:
256,192,132577,1,8,0:0:0:0:
256,192,132817,1,8,0:0:0:0:
256,192,133057,1,4,0:0:0:0:
256,192,133537,1,8,0:0:0:0:
256,192,134017,1,14,0:0:0:0:
256,192,134377,1,14,0:0:0:0:
