osu file format v9

[General]
AudioFilename: doku.mp3
AudioLeadIn: 1000
PreviewTime: 79453
Countdown: 0
SampleSet: Normal
StackLeniency: 0.7
Mode: 0
LetterboxInBreaks: 0

[Editor]
Bookmarks: 1153,5353,11503,17353,26878,31753,38653,48328,58078,62953,74728,84478
DistanceSpacing: 0.9
BeatDivisor: 4
GridSize: 4

[Metadata]
Title:Doku Ryuu no Kobura
Artist:Takanashi Yasuharu
Creator:_Kiva
Version:Normal
Source:Fairy Tail
Tags:ISHIDAMITSUNARI Mystica AoiX

[Difficulty]
HPDrainRate:2
CircleSize:3
OverallDifficulty:3
ApproachRate:5
SliderMultiplier:1.1
SliderTickRate:2

[Events]
//Background and Video events
0,0,"31.jpg"
//Break Periods
2,36453,37753
2,58353,61753
//Storyboard Layer 0 (Background)
//Storyboard Layer 1 (Fail)
//Storyboard Layer 2 (Pass)
//Storyboard Layer 3 (Foreground)
//Storyboard Sound Samples
//Background Colour Transformations
3,100,163,162,255

[TimingPoints]
553,300,4,1,1,80,1,0
10153,-100,4,2,1,80,0,0
10453,-100,4,1,1,80,0,0
17353,-100,4,1,1,70,0,0
20953,-100,4,1,1,80,0,0
38953,-100,4,1,0,80,0,0
39553,-100,4,1,1,80,0,0
41353,-100,4,1,0,80,0,0
41953,-100,4,1,1,80,0,0
43753,-100,4,1,0,80,0,0
44053,-100,4,1,1,80,0,0
48553,-100,4,2,1,80,0,0
49153,-100,4,1,1,80,0,0
52153,-100,4,1,0,80,0,0
53353,-100,4,1,1,80,0,0
62953,-100,4,1,1,65,0,0
74953,-100,4,1,0,80,0,0
75253,-100,4,1,1,80,0,0
79753,-100,4,1,1,80,0,1
80053,-100,4,1,1,80,0,1
84553,-100,4,1,1,80,0,1
91003,-100,4,1,1,80,0,0
91153,-100,4,1,1,80,0,0
95653,-100,4,1,1,10,0,0

[Colours]
Combo1 : 255,181,70
Combo2 : 47,151,255
Combo3 : 255,125,125
Combo4 : 255,255,77
Combo5 : 128,255,128
SliderBorder : 224,224,224

[HitObjects]
136,104,553,2,0,B|136:164,1,55,4|4
136,208,853,2,0,B|188:172|248:216,1,110
336,188,1453,6,0,B|336:264,1,55,4|4
336,292,1753,2,0,B|284:328|224:284,1,110
148,240,2353,1,0
148,240,2653,1,0
232,188,2953,6,0,B|308:188,1,55,4|4
336,188,3253,2,0,B|336:264,2,55
420,240,3853,6,4,B|420:316,1,55
372,296,4153,2,0,B|348:356,1,55
308,328,4453,2,0,B|240:348,1,55
232,300,4753,2,0,B|172:280|144:216|144:216,1,110
96,148,5353,6,0,B|156:136|228:152,1,110,0|8
260,228,5953,2,0,B|200:240|128:224,1,110,0|8
52,240,6553,2,0,B|72:120|216:88,1,220,0|8
296,92,7453,1,0
368,164,7753,6,0,B|368:236|344:284|340:288,1,110,0|8
264,220,8353,2,0,B|252:296|200:332,1,110,0|8
140,256,8953,6,0,B|52:160|144:48,2,220,0|0|4
208,184,10453,5,8
208,184,11053,1,8
208,184,11353,2,0,B|280:112|416:112,2,220
164,272,12853,5,8
256,304,13153,2,0,B|296:256|356:240,1,110,0|8
436,204,13753,2,0,B|400:148|352:120,1,110
268,88,14353,1,0
268,88,14653,1,0
256,192,14953,12,0,16603
256,192,17053,5,0
212,280,17353,6,0,B|88:276|80:128,1,220
108,40,18253,1,0
176,104,18553,2,0,B|212:228|368:172,1,220
444,136,19453,1,0
440,236,19753,6,0,B|324:196|252:344|120:208,1,330
156,124,20953,2,0,B|212:136|212:136|272:104,1,110
356,100,21553,1,0
356,100,21853,1,0
408,184,22153,6,0,B|276:152|212:268,1,220,0|0
316,268,23053,2,0,B|216:200|100:276,1,220,0|0
28,328,23953,1,0
28,328,24253,1,0
108,272,24553,6,0,B|160:204|160:204|168:244|284:200,1,220
372,160,25453,1,0
448,224,25753,2,0,B|476:288|440:336,3,110
344,328,26953,5,4
256,148,27553,1,8
172,328,28153,2,0,B|120:300|120:300|96:244,2,110,0|0|8
256,148,29353,5,4
256,148,29953,1,8
80,240,30553,2,0,B|184:188,1,110
228,276,31153,2,0,B|276:164,1,110,8|0
344,108,31753,6,0,B|244:20|128:120,1,220,0|8
232,152,32653,2,0,B|312:272|180:352,1,220
96,332,33553,1,8
96,332,33853,1,0
44,248,34153,6,0,B|112:228|112:228|168:136|256:156,1,220
328,172,35053,1,0
400,240,35353,2,0,B|340:296|340:296|248:304,2,165
392,112,38953,6,0,B|324:204|176:164,1,220,4|8
168,72,39853,2,0,B|68:140|116:272,1,220,0|8
184,336,40753,1,0
232,332,40903,1,0
280,320,41053,1,8
368,272,41353,6,0,B|236:292|196:148,1,220,4|8
284,112,42253,1,0
196,68,42553,2,0,B|48:200|200:356,1,330
280,300,43753,6,0,B|356:280|412:312,2,110,4|0|8
208,232,44653,1,0
112,208,44953,2,0,B|68:156|96:96,2,110,0|0|8
296,124,46153,6,0,B|416:112|488:248,1,220,0|8
376,228,47053,2,0,B|336:312|184:328,1,220
96,304,47953,1,0
164,232,48253,1,0
208,144,48553,6,0,B|308:208|424:172,1,220,4|8
352,100,49453,1,0
452,104,49753,2,0,B|512:104,2,55,0|0|8
400,188,50353,2,0,B|476:188,2,55,0|0|8
300,184,50953,6,0,B|204:272|92:264|28:132,1,330
128,120,52153,5,4
212,172,52453,1,4
280,244,52753,1,4
320,340,53053,5,4
320,340,53353,2,0,B|356:212|492:204,1,220,0|8
476,204,54253,2,0,B|440:76|304:68,1,220,0|8
220,76,55153,1,0
56,188,55753,6,0,B|156:124,1,110,0|8
236,176,56353,1,0
148,228,56653,1,0
104,208,56803,1,0
56,188,56953,6,0,B|36:300,2,110
124,116,57853,1,0
220,92,58153,1,0
376,144,62953,6,0,B|248:96|156:144,1,220,4|0
236,208,63853,1,0
172,284,64153,2,0,B|80:200,1,110
164,140,64753,2,0,B|284:100,1,110
364,72,65353,6,0,B|464:156|424:280,1,220,4|8
348,208,66253,2,0,B|276:316|136:304,1,220
64,284,67153,1,0
64,284,67453,1,0
148,232,67753,6,0,B|316:320|328:180|468:232,1,330,4|0
460,132,68953,2,0,B|340:176,1,110
308,84,69553,2,0,B|276:196,1,110
248,284,70153,6,0,B|228:156|76:144,1,220,4|8
98,146,71053,1,0
180,92,71353,2,0,B|308:60|392:172,1,220
428,240,72253,1,0
256,192,72553,12,0,74653
152,144,74953,5,4
192,236,75253,2,0,B|144:300,2,55
256,160,75853,1,8
256,160,76153,2,0,B|372:132|488:168,1,220
436,256,77053,1,0
348,300,77353,5,0
356,200,77653,2,0,B|400:152,2,55
268,244,78253,1,8
232,336,78553,2,0,B|124:316|36:224|96:84,1,330
180,140,79753,5,4
272,172,80053,1,8
272,172,80203,1,0
272,172,80353,2,0,B|392:172,1,110,0|8
460,236,80953,2,0,B|460:304,2,55,0|0|8
364,268,81553,2,0,B|320:328,2,55,0|0|8
264,268,82153,5,0
264,268,82453,2,0,B|144:268,2,110,8|0|0
256,168,83353,2,0,B|164:88|48:168,2,220,0|0|0
252,268,84853,6,0,B|376:296,1,110
348,192,85453,1,0
440,160,85753,2,0,B|468:100,2,55
420,256,86353,2,0,B|432:324,2,55
348,192,86953,5,0
272,260,87253,2,0,B|144:264,2,110
200,192,88153,1,0
192,144,88303,1,0
184,96,88453,1,0
112,168,88753,1,0
68,192,88903,1,0
24,212,89053,1,0
108,264,89353,6,0,B|200:360,1,110,4|0
256,276,89953,2,0,B|352:188,1,110,4|0
416,140,90553,2,0,B|488:140,3,55
256,192,91753,12,0,95653
