osu file format v9

[General]
AudioFilename: doku.mp3
AudioLeadIn: 1000
PreviewTime: 79453
Countdown: 0
SampleSet: Normal
StackLeniency: 0.7
Mode: 0
LetterboxInBreaks: 0

[Editor]
Bookmarks: 1153,5353,11503,17353,26878,31753,38653,48328,58078,62953,74728,84478
DistanceSpacing: 0.9
BeatDivisor: 4
GridSize: 4

[Metadata]
Title:Doku Ryuu no Kobura
Artist:Takanashi Yasuharu
Creator:_Kiva
Version:Easy
Source:Fairy Tail
Tags:ISHIDAMITSUNARI Mystica AoiX

[Difficulty]
HPDrainRate:2
CircleSize:3
OverallDifficulty:2
ApproachRate:3
SliderMultiplier:0.9
SliderTickRate:2

[Events]
//Background and Video events
0,0,"31.jpg"
//Break Periods
2,27153,30313
2,58353,61513
//Storyboard Layer 0 (Background)
//Storyboard Layer 1 (Fail)
//Storyboard Layer 2 (Pass)
//Storyboard Layer 3 (Foreground)
//Storyboard Sound Samples
//Background Colour Transformations
3,100,163,162,255

[TimingPoints]
553,300,4,1,1,80,1,0
10153,-100,4,2,1,80,0,0
10453,-100,4,1,1,80,0,0
17353,-100,4,1,1,60,0,0
20953,-100,4,1,1,80,0,0
38953,-100,4,1,0,80,0,0
39553,-100,4,1,1,80,0,0
41353,-100,4,1,0,80,0,0
41953,-100,4,1,1,80,0,0
43753,-100,4,1,0,80,0,0
44053,-100,4,1,1,80,0,0
48553,-100,4,2,1,80,0,0
49153,-100,4,1,1,80,0,0
62953,-100,4,1,1,65,0,0
74953,-100,4,1,0,80,0,0
75853,-100,4,1,1,80,0,0
79753,-100,4,1,1,70,0,1
80053,-100,4,1,1,80,0,1
84553,-100,4,1,1,90,0,1
91003,-100,4,1,1,80,0,0
95653,-100,4,1,1,10,0,0

[Colours]
Combo1 : 255,181,70
Combo2 : 47,151,255
Combo3 : 255,125,125
Combo4 : 255,255,77
Combo5 : 128,255,128
SliderBorder : 224,224,224

[HitObjects]
156,196,553,5,0
356,196,1453,1,0
212,104,2353,2,0,B|260:92|312:108,1,90
372,144,2953,5,0
128,124,3853,1,0
48,116,4153,1,0
76,192,4453,1,0
60,272,4753,2,0,B|112:260|156:276,1,90
220,316,5353,6,0,B|376:328|464:208,1,270,0|8
412,148,6553,2,0,B|304:232|136:184,1,270,0|8
108,124,7753,6,0,B|256:144|336:260,1,270,0|8
412,272,8953,2,0,B|508:280,3,90
492,200,10153,6,0,B|408:96|248:104,1,270,4|8
272,180,11353,2,0,B|192:292|32:276,1,270,0|8
100,228,12553,6,0,B|248:228|352:328,1,270,0|8
424,296,13753,1,0
348,152,14353,1,0
216,60,14953,6,0,B|40:208|236:364,1,360
440,240,17053,1,0
376,288,17353,6,0,B|212:268|108:320,1,270
36,344,18553,2,0,B|120:224|48:68,1,270
136,88,19753,5,0
292,124,20353,2,0,B|200:164,1,90
256,224,20953,6,0,B|212:320,1,90
140,288,21553,1,0
160,128,22153,6,0,B|320:80|424:180,1,270
456,240,23353,2,0,B|352:224|292:304,1,180
220,264,24252,1,0
140,264,24553,5,0
104,108,25153,2,0,B|200:108,1,90
276,112,25753,2,0,B|380:100|444:188,2,180,0|0|4
420,80,31753,6,0,B|340:208|172:204,1,270,0|8
152,276,32953,2,0,B|256:268|328:356,1,180,0|0
392,316,33853,1,8
424,240,34153,6,0,B|360:164,1,90,0|8
320,240,34753,2,0,B|224:188,1,90,0|8
204,268,35353,2,0,B|124:272|52:248,2,135
272,312,36553,2,0,B|344:336|416:324,2,135
252,112,38953,6,0,B|200:208|92:220,1,180,0|8
60,156,39853,1,0
38,234,40153,2,0,B|90:306|214:314,1,180,0|8
352,348,41353,6,0,B|296:260,1,90
296,192,41953,2,0,B|224:132,1,90,8|0
176,200,42553,2,0,B|76:176,2,90
252,308,43753,6,0,B|400:328|468:152,1,270
392,124,44953,2,0,B|320:196|212:184,1,180
100,88,46153,6,0,B|84:184,1,90
164,160,46753,2,0,B|172:264,1,90,8|0
252,248,47353,2,0,B|332:300,2,90
284,88,48553,6,0,B|232:196|156:212|56:204,1,270,4|8
68,124,49753,1,0
136,84,50053,2,0,B|176:164,2,90
216,64,50953,6,0,B|316:64|376:148,2,180,0|8|0
136,72,52453,1,0
64,112,52753,1,0
224,148,53353,6,0,B|116:116|12:176|-4:268,1,270,0|8
128,272,54553,2,0,B|228:236|304:308,1,180,0|8
428,208,55753,6,0,B|368:132,1,90,0|8
312,192,56353,2,0,B|224:152,1,90,0|8
176,216,56953,2,0,B|84:264,2,90
248,256,57853,1,0
316,304,58153,1,0
424,112,62953,6,0,B|344:56|236:108,2,180,4|8|0
336,248,64753,1,0
335,248,65353,6,0,B|415:304|523:252,2,180,4|8|0
423,112,67153,1,0
192,108,67753,6,0,B|128:184,1,90,4|0
76,236,68353,1,8
236,248,68953,2,0,B|292:168,1,90
352,224,69553,2,0,B|420:168,1,90
400,88,70153,6,0,B|300:100,2,90
316,228,71353,2,0,B|212:288|136:260|88:168,1,270
168,152,72553,2,0,B|368:52|500:240,1,360
360,152,74953,6,0,B|244:60|92:132,1,270,4|8
140,200,76153,2,0,B|264:300|408:220,1,270,0|8
400,148,77353,6,0,B|364:60,2,90
424,228,78253,1,8
412,308,78553,2,0,B|316:328|216:308|168:232,1,270
120,168,79753,6,0,B|212:156,1,90,4|8
260,224,80353,2,0,B|368:208,1,90,0|8
400,276,80953,2,0,B|476:216|480:116,1,180
472,40,81853,1,8
408,88,82153,6,0,B|356:164|240:168|156:136,1,270,0|8
88,176,83353,2,0,B|64:280,3,90,0|0|0|8
148,268,84553,6,0,B|248:268,2,90
172,192,85453,1,0
204,116,85753,6,0,B|308:116,1,90
264,192,86353,2,0,B|352:192,1,90
432,168,86953,6,0,B|432:268,3,90
376,316,88153,2,0,B|276:344|192:312,2,180
444,268,89653,2,0,B|476:180|440:80|344:40,1,270
256,192,91753,12,0,95653
