osu file format v14

[General]
AudioFilename: tmty.mp3
AudioLeadIn: 0
PreviewTime: 57249
Countdown: 0
SampleSet: Soft
StackLeniency: 0.4
Mode: 0
LetterboxInBreaks: 0
WidescreenStoryboard: 0

[Editor]
Bookmarks: 2644,7978,9978,10061,10144,13311,18644,23978,34644,44894,67644,67978,78644,89311,89644,94728,100311,105394,119978
DistanceSpacing: 1.3
BeatDivisor: 4
GridSize: 4
TimelineZoom: 2.999999

[Metadata]
Title:Take me*Take you
TitleUnicode:Take me☆Take you
Artist:Takamori Natsumi, Takada Yuuki, Takahashi Karin, Hanamori Yumiri, Harada Sayaka
ArtistUnicode:高森奈津美、高田憂希、高橋花林、花守ゆみり、原田彩楓
Creator:Yamicchi
Version:PRO
Source:アイドルマスター シンデレラガールズ スターライトステージ
Tags:The iDOLM@STER Cinderella Girls Starlight Stage im@s imas idolmaster event version Aidorumasutaa Shinderera Gaaruzu Sutaaraito Suteeji Hikan 前川みく Maekawa Miku 依田芳乃 Yorita Yoshino 佐藤心 Sato Shin 三船美優 Mifune Miyu 森久保乃々Morikubo Nono
BeatmapID:1380705
BeatmapSetID:650946

[Difficulty]
HPDrainRate:5.5
CircleSize:4
OverallDifficulty:6
ApproachRate:8
SliderMultiplier:1.6
SliderTickRate:1

[Events]
//Background and Video events
0,0,"pro.jpg",0,0
//Break Periods
//Storyboard Layer 0 (Background)
//Storyboard Layer 1 (Fail)
//Storyboard Layer 2 (Pass)
//Storyboard Layer 3 (Foreground)
//Storyboard Sound Samples

[TimingPoints]
2750,333.333333333333,4,2,1,60,1,0
2750,-133.333333333333,4,2,1,60,0,0
13416,-111.111111111111,4,2,1,80,0,0
22916,-111.111111111111,4,2,1,70,0,0
23083,-111.111111111111,4,2,1,65,0,0
23249,-111.111111111111,4,2,1,60,0,0
23416,-111.111111111111,4,2,1,55,0,0
23583,-111.111111111111,4,2,1,50,0,0
23749,-111.111111111111,4,2,1,45,0,0
23916,-111.111111111111,4,2,1,40,0,0
24083,-111.111111111111,4,2,1,60,0,0
34749,-111.111111111111,4,2,1,70,0,0
53416,-133.333333333333,4,2,1,60,0,0
54749,-111.111111111111,4,2,1,60,0,0
57416,-100,4,2,1,80,0,1
67749,-100,4,2,1,80,0,0
68083,-100,4,2,1,80,0,1
78749,-100,4,2,1,70,0,0
89083,-100,4,2,1,70,0,0
89416,-100,4,2,1,70,0,1
89749,-100,4,2,1,70,0,0
100083,-100,4,2,1,70,0,1
100416,-100,4,2,1,70,0,0
120083,-100,4,2,1,30,0,0

[Colours]
Combo1 : 252,177,167
Combo2 : 248,129,230
Combo3 : 250,227,137
Combo4 : 186,228,158

[HitObjects]
216,176,2749,5,8,0:0:0:0:
304,156,2916,1,8,0:0:0:0:
277,242,3083,1,8,0:0:0:0:
182,24,3416,1,8,0:0:0:0:
155,110,3583,1,8,0:0:0:0:
392,136,3916,6,0,P|441:126|525:118,1,120.000004577637,8|8,0:0|0:0,0:0:0:0:
444,296,4583,2,0,P|384:290|325:278,1,120.000004577637,8|8,0:0|0:0,0:0:0:0:
312,196,5083,1,8,0:0:0:0:
114,288,5416,5,8,0:0:0:0:
138,208,5583,1,8,0:0:0:0:
195,268,5749,1,8,0:0:0:0:
0,168,6083,1,8,0:0:0:0:
81,148,6249,1,8,0:0:0:0:
90,368,6583,6,0,L|224:376,1,120.000004577637,8|8,0:0|0:0,0:0:0:0:
300,171,7249,2,0,L|166:179,1,120.000004577637,8|8,0:0|0:0,0:0:0:0:
124,240,7749,1,8,0:0:0:0:
364,296,8083,5,12,0:0:0:0:
444,272,8249,1,8,0:0:0:0:
425,354,8416,1,8,0:0:0:0:
402,133,8749,1,12,0:0:0:0:
463,190,8915,1,8,0:0:0:0:
284,320,9249,6,0,P|228:288|152:292,1,120.000004577637,8|8,0:0|0:0,0:0:0:0:
0,272,9916,2,0,P|55:239|90:171,1,120.000004577637,12|8,0:0|0:0,0:0:0:0:
104,108,10416,1,8,0:0:0:0:
288,216,10749,5,12,0:0:0:0:
348,156,10916,1,8,0:0:0:0:
348,156,10999,1,8,0:0:0:0:
348,156,11083,2,0,P|352:116|352:88,1,60.0000022888184,8|0,0:0|0:0,0:0:0:0:
276,40,11416,1,8,0:0:0:0:
200,96,11583,2,0,P|196:136|196:164,1,60.0000022888184,8|0,0:0|0:0,0:0:0:0:
288,216,11916,6,0,P|360:204|424:200,1,120.000004577637,8|8,0:0|0:0,0:0:0:0:
456,360,12583,1,8,0:0:0:0:
360,316,12749,2,0,P|356:268|360:232,1,60.0000022888184,8|0,0:0|0:0,0:0:0:0:
480,184,13083,2,8,P|481:163|479:138,3,30.0000011444092
460,124,13416,6,0,L|292:108,1,143.999995605469,6|8,0:0|0:0,0:0:0:0:
238,207,13916,1,2,0:0:0:0:
238,207,14083,2,0,L|406:191,1,143.999995605469,2|8,0:0|0:0,0:0:0:0:
435,306,14583,1,2,0:0:0:0:
435,306,14749,2,0,L|267:290,1,143.999995605469,2|8,0:0|0:0,0:0:0:0:
188,360,15249,1,2,0:0:0:0:
188,360,15416,2,0,L|108:372,1,71.9999978027344,2|0,0:0|0:0,0:0:0:0:
48,312,15749,1,8,0:0:0:0:
88,232,15916,1,0,0:0:0:0:
20,132,16083,6,0,P|72:112|156:132,1,143.999995605469,6|8,0:0|0:0,0:0:0:0:
252,196,16583,1,2,0:0:0:0:
252,196,16749,2,0,P|319:219|387:200,1,143.999995605469,2|8,0:0|0:0,0:0:0:0:
395,85,17249,1,2,0:0:0:0:
395,85,17416,2,0,P|327:61|259:80,1,143.999995605469,2|8,0:0|0:0,0:0:0:0:
155,131,17916,1,2,0:0:0:0:
155,131,18083,2,0,L|162:216,1,71.9999978027344,2|0,0:0|0:0,0:0:0:0:
213,278,18416,1,8,0:0:0:0:
160,352,18583,1,8,0:0:0:0:
280,372,18749,6,0,L|432:360,1,143.999995605469,6|8,0:0|0:0,0:0:0:0:
484,248,19249,1,2,0:0:0:0:
484,248,19416,2,0,L|340:259,1,143.999995605469,2|8,0:0|0:0,0:0:0:0:
256,164,19916,1,2,0:0:0:0:
256,164,20083,2,0,L|399:152,1,143.999995605469,2|8,0:0|0:0,0:0:0:0:
496,68,20583,1,2,0:0:0:0:
496,68,20749,2,0,P|460:48|424:40,1,71.9999978027344,2|0,0:0|0:0,0:0:0:0:
324,56,21083,2,0,L|332:140,1,71.9999978027344,10|0,0:0|0:0,0:0:0:0:
240,192,21416,6,0,B|244:240|244:240|232:288|232:288|236:344,1,143.999995605469,6|10,0:0|0:0,0:0:0:0:
148,364,21916,2,0,P|112:372|52:364,1,71.9999978027344,2|0,0:0|0:0,0:0:0:0:
68,276,22249,2,0,P|104:268|164:276,1,71.9999978027344,10|0,0:0|0:0,0:0:0:0:
235,334,22583,2,0,P|307:346|384:320,1,143.999995605469,6|2,0:0|0:0,0:0:0:0:
416,244,23083,6,0,L|492:236,1,71.9999978027344,2|2,0:0|0:0,0:0:0:0:
408,224,23416,2,0,L|484:216,1,71.9999978027344,2|2,0:0|0:0,0:0:0:0:
400,204,23749,2,0,L|476:196,1,71.9999978027344,2|2,0:0|0:0,0:0:0:0:
376,132,24083,5,2,3:2:0:0:
368,112,24416,1,2,3:2:0:0:
360,92,24749,1,2,3:2:0:0:
352,72,25083,1,2,3:2:0:0:
276,32,25249,2,0,P|216:60|124:48,1,143.999995605469,2|2,0:2|0:2,0:2:0:0:
56,68,25749,1,2,3:2:0:0:
92,144,25916,1,2,0:2:0:0:
48,216,26083,2,0,P|32:268|28:300,1,71.9999978027344,2|0,3:2|0:2,0:2:0:0:
132,352,26416,2,0,P|125:316|113:282,1,71.9999978027344,0|0,3:2|0:2,0:2:0:0:
36,192,26749,5,2,3:2:0:0:
52,176,27083,1,2,3:2:0:0:
72,160,27416,1,2,3:2:0:0:
92,144,27749,1,2,3:2:0:0:
168,184,27916,2,0,L|316:176,1,143.999995605469,2|2,0:2|0:2,0:2:0:0:
368,112,28416,1,2,3:2:0:0:
433,169,28583,1,2,0:2:0:0:
376,234,28749,2,0,L|380:288,3,35.9999989013672,2|0|0|0,3:2|0:2|0:2|0:2,0:2:0:0:
352,304,29083,2,0,L|356:358,3,35.9999989013672,0|0|0|0,3:2|0:2|0:2|0:2,0:2:0:0:
328,374,29416,5,2,3:2:0:0:
304,364,29749,1,2,3:2:0:0:
280,356,30083,1,2,3:2:0:0:
256,348,30416,1,2,3:2:0:0:
176,376,30583,2,0,P|172:336|240:264,1,143.999995605469,2|2,0:2|0:2,0:2:0:0:
324,268,31083,1,2,3:2:0:0:
396,220,31249,1,2,0:2:0:0:
482,223,31416,2,0,P|484:264|484:300,1,71.9999978027344,2|0,3:2|0:2,0:2:0:0:
442,148,31749,2,0,P|440:107|440:71,1,71.9999978027344,2|0,3:2|0:2,0:2:0:0:
396,220,32083,6,0,B|348:220|348:220|304:232|304:232|224:232,1,143.999995605469,2|0,3:2|3:2,0:2:0:0:
208,160,32583,1,0,0:2:0:0:
208,160,32749,2,0,P|216:224|220:320,1,143.999995605469,2|0,3:2|3:2,0:2:0:0:
132,280,33249,2,0,P|125:241|129:201,1,71.9999978027344,2|0,0:2|3:2,0:2:0:0:
208,160,33583,5,0,0:0:0:0:
288,172,33749,1,0,3:0:0:0:
368,184,33916,1,0,0:0:0:0:
190,197,34249,5,8,0:0:0:0:
288,172,34416,1,8,0:0:0:0:
385,147,34582,1,8,0:0:0:0:
392,284,34749,6,0,P|320:272|240:264,1,143.999995605469,6|10,0:0|0:0,0:0:0:0:
160,292,35249,1,0,0:0:0:0:
160,292,35416,2,0,P|152:244|152:212,1,71.9999978027344,2|0,0:0|0:0,0:0:0:0:
184,132,35749,1,10,0:0:0:0:
184,132,35916,2,0,P|255:120|326:112,1,143.999995605469,2|0,0:0|0:0,0:0:0:0:
420,124,36416,1,10,0:0:0:0:
363,199,36583,1,2,0:0:0:0:
399,285,36749,2,0,P|416:320|416:360,1,71.9999978027344,2|0,0:0|0:0,0:0:0:0:
324,376,37083,2,0,P|307:341|307:301,1,71.9999978027344,8|0,0:0|0:0,0:0:0:0:
363,199,37416,6,0,P|432:192|480:124,1,143.999995605469,2|8,0:0|0:0,0:0:0:0:
432,53,37916,1,0,0:0:0:0:
432,53,38083,2,0,P|404:75|387:107,1,71.9999978027344,2|0,0:0|0:0,0:0:0:0:
363,199,38416,1,10,0:0:0:0:
276,164,38583,2,0,B|192:144|208:188|128:168,1,143.999995605469,2|0,0:0|0:0,0:0:0:0:
46,140,39083,1,10,0:0:0:0:
75,51,39250,1,0,0:0:0:0:
164,80,39416,2,0,L|200:76,3,35.9999989013672,2|0|0|0,0:0|0:0|0:0|0:0,0:0:0:0:
240,56,39749,2,0,L|276:52,3,35.9999989013672,10|0|0|0,0:0|0:0|0:0|0:0,0:0:0:0:
320,36,40083,6,0,P|312:116|308:188,1,143.999995605469,6|8,0:0|0:0,0:0:0:0:
360,256,40583,1,0,0:0:0:0:
448,228,40749,1,0,0:0:0:0:
299,326,41083,1,10,0:0:0:0:
211,298,41249,6,0,P|208:340|220:376,1,71.9999978027344,0|2,0:0|0:0,0:0:0:0:
299,326,41583,2,0,P|302:284|290:248,1,71.9999978027344,0|8,0:0|0:0,0:0:0:0:
216,204,41916,1,0,0:0:0:0:
216,204,42083,2,0,L|140:212,2,71.9999978027344,0|0|8,0:0|0:0|0:0,0:0:0:0:
304,168,42583,1,2,0:0:0:0:
220,56,42749,5,2,0:0:0:0:
220,56,42916,2,0,P|213:91|219:126,1,71.9999978027344,2|8,0:0|0:0,0:0:0:0:
304,168,43249,2,0,P|337:156|365:133,1,71.9999978027344,2|0,0:0|0:0,0:0:0:0:
452,176,43583,2,0,P|445:211|451:246,1,71.9999978027344,2|8,0:0|0:0,0:0:0:0:
512,320,43916,6,0,P|460:304|368:284,1,143.999995605469,2|0,0:0|0:0,0:0:0:0:
284,316,44416,2,0,P|240:328|192:332,1,71.9999978027344,10|2,0:0|0:0,0:0:0:0:
100,272,44749,1,8,0:0:0:0:
152,192,44916,2,0,P|180:220|193:273,2,71.9999978027344,0|0|0,0:0|0:0|0:0,0:0:0:0:
39,164,45416,5,12,0:0:0:0:
39,164,45583,1,8,0:0:0:0:
94,16,45916,1,8,0:0:0:0:
94,16,46083,1,8,0:0:0:0:
193,137,46416,1,8,0:0:0:0:
193,137,46583,1,8,0:0:0:0:
193,137,46916,6,0,P|188:96|196:64,2,71.9999978027344,2|2|0,0:0|0:0|0:0,0:0:0:0:
280,172,47416,2,0,P|285:136|278:101,1,71.9999978027344,10|0,0:0|0:0,0:0:0:0:
193,137,47749,2,0,P|185:172|191:207,1,71.9999978027344,2|0,0:0|0:0,0:0:0:0:
252,316,48083,5,12,0:0:0:0:
252,316,48249,1,8,0:0:0:0:
396,228,48583,1,8,0:0:0:0:
396,228,48749,1,8,0:0:0:0:
320,368,49083,1,8,0:0:0:0:
320,368,49249,6,0,L|172:352,1,143.999995605469,10|2,0:0|0:0,0:0:0:0:
84,360,49749,2,0,P|88:324|108:288,1,71.9999978027344,2|2,0:0|0:0,0:0:0:0:
188,248,50083,1,10,0:0:0:0:
280,268,50249,1,2,0:0:0:0:
363,223,50416,2,0,P|379:191|383:155,1,71.9999978027344,2|2,0:0|0:0,0:0:0:0:
344,36,50749,5,12,0:0:0:0:
344,36,50916,1,8,0:0:0:0:
172,100,51249,1,8,0:0:0:0:
172,100,51416,1,8,0:0:0:0:
314,217,51749,1,8,0:0:0:0:
314,217,51916,1,8,0:0:0:0:
314,217,52249,6,0,P|376:188|456:224,1,143.999995605469,2|2,0:0|0:0,0:0:0:0:
382,282,52749,2,0,L|388:360,1,71.9999978027344,10|0,0:0|0:0,0:0:0:0:
292,364,53083,2,0,L|286:292,1,71.9999978027344,2|0,0:0|0:0,0:0:0:0:
212,168,53416,6,0,P|54:186|194:260,1,420.000016021729,6|0,0:0|0:0,0:0:0:0:
282,228,54749,5,8,0:0:0:0:
264,320,54916,1,8,0:0:0:0:
374,246,55083,1,8,0:0:0:0:
356,338,55249,1,8,0:0:0:0:
116,248,55749,5,8,0:0:0:0:
134,340,55915,1,8,0:0:0:0:
208,230,56082,1,8,0:0:0:0:
226,323,56249,1,8,0:0:0:0:
380,184,56583,5,0,0:0:0:0:
400,95,56749,2,0,P|373:71|339:58,1,71.9999978027344,8|0,0:0|0:0,0:0:0:0:
248,76,57083,2,0,L|208:80,3,35.9999989013672,8|8|8|8,0:0|0:0|0:0|0:0,0:0:0:0:
168,100,57416,6,0,B|124:116|72:92|72:92|76:56|112:32,2,160,6|8|2,0:0|0:0|0:0,0:0:0:0:
260,76,58249,1,0,0:0:0:0:
328,144,58416,2,0,P|336:188|328:224,1,80,8|0,0:0|0:0,0:0:0:0:
248,272,58749,2,0,L|424:256,2,160,6|8|0,0:0|0:0|0:0,0:0:0:0:
168,220,59583,1,0,0:0:0:0:
92,280,59749,2,0,P|72:228|80:180,1,80,10|0,0:0|0:0,0:0:0:0:
152,112,60083,6,0,B|200:96|200:96|320:112,1,160,6|8,0:0|0:0,0:0:0:0:
380,176,60583,1,0,0:0:0:0:
460,120,60749,2,0,P|476:164|472:208,1,80,2|0,0:0|0:0,0:0:0:0:
412,270,61083,2,0,P|365:272|324:255,1,80,10|0,0:0|0:0,0:0:0:0:
280,180,61416,2,0,L|296:344,1,160,4|8,0:0|0:0,0:0:0:0:
180,372,61916,1,0,0:0:0:0:
180,372,62083,2,0,L|196:208,1,160,4|8,0:0|0:0,0:0:0:0:
88,56,62749,6,0,B|128:40|168:56|168:56|208:72|248:56,2,160,6|8|2,0:0|0:0|0:0,0:0:0:0:
24,128,63583,1,0,0:0:0:0:
0,224,63749,2,0,L|8:304,1,80,8|0,0:0|0:0,0:0:0:0:
128,332,64083,2,0,P|208:292|296:316,1,160,6|8,0:0|0:0,0:0:0:0:
340,376,64583,1,0,0:0:0:0:
400,304,64749,2,0,P|408:264|400:216,1,80,0|0,0:0|0:0,0:0:0:0:
352,144,65083,1,10,0:0:0:0:
306,228,65249,1,2,0:0:0:0:
200,160,65416,6,0,B|152:128|88:144|88:144|96:200,1,160,6|8,0:0|0:0,0:0:0:0:
112,280,65916,1,0,0:0:0:0:
196,328,66083,2,0,P|208:280|200:236,1,80,2|0,0:0|0:0,0:0:0:0:
292,212,66416,2,0,P|327:246|369:261,1,80,10|0,0:0|0:0,0:0:0:0:
464,192,66749,6,0,P|452:288|444:368,1,160,6|8,0:0|0:0,0:0:0:0:
356,384,67249,1,2,0:0:0:0:
356,384,67416,2,0,P|344:344|336:304,1,80,6|0,0:0|0:0,0:0:0:0:
244,276,67749,2,0,P|232:316|224:356,1,80,8|0,0:0|0:0,0:0:0:0:
104,376,68083,6,0,P|64:356|52:248,1,160,6|8,0:0|0:0,0:0:0:0:
108,176,68583,1,0,0:0:0:0:
200,200,68749,2,0,L|280:192,1,80,2|0,0:0|0:0,0:0:0:0:
352,124,69083,2,0,L|360:204,1,80,8|0,0:0|0:0,0:0:0:0:
284,296,69416,2,0,L|442:277,1,160,6|8,0:0|0:0,0:0:0:0:
500,200,69916,1,0,0:0:0:0:
440,124,70083,2,0,P|432:80|432:40,1,80,0|0,0:0|0:0,0:0:0:0:
340,20,70416,2,0,P|305:48|271:68,1,80,10|0,0:0|0:0,0:0:0:0:
148,32,70749,6,0,B|88:8|24:36|24:36|36:48|52:56,1,160,6|10,0:0|0:0,0:0:0:0:
120,108,71249,1,0,0:0:0:0:
212,132,71416,2,0,P|219:172|224:212,1,80,2|0,0:0|0:0,0:0:0:0:
176,320,71749,2,0,P|138:353|31:331,1,160,14|0,0:0|0:0,0:0:0:0:
8,244,72249,1,0,0:0:0:0:
93,194,72416,2,0,P|104:232|100:272,1,80,10|0,0:0|0:0,0:0:0:0:
176,320,72749,2,0,P|203:291|240:275,1,80,2|0,0:0|0:0,0:0:0:0:
336,268,73083,2,0,P|374:277|406:301,1,80,10|0,0:0|0:0,0:0:0:0:
484,208,73416,6,0,P|428:192|312:176,1,160,6|10,0:0|0:0,0:0:0:0:
232,192,73916,1,0,0:0:0:0:
232,192,74083,2,0,P|176:208|60:224,1,160,0|8,0:0|0:0,0:0:0:0:
8,152,74583,1,0,0:0:0:0:
8,152,74749,2,0,L|0:64,1,80,0|0,0:0|0:0,0:0:0:0:
92,36,75083,2,0,L|99:115,1,80,8|0,0:0|0:0,0:0:0:0:
196,104,75416,2,0,P|276:108|326:189,1,160,0|8,0:0|0:0,0:0:0:0:
232,192,75916,1,0,0:0:0:0:
152,276,76083,6,0,B|144:332|192:368|192:368|260:352,1,160,6|8,0:0|0:0,0:0:0:0:
340,332,76583,1,0,0:0:0:0:
432,360,76749,2,0,P|436:320|418:277,1,80,2|0,0:0|0:0,0:0:0:0:
448,190,77083,2,0,P|408:186|365:204,1,80,10|0,0:0|0:0,0:0:0:0:
280,224,77416,6,0,P|268:184|260:132,1,80,10|0,0:0|0:0,0:0:0:0:
200,72,77749,2,0,P|188:112|180:164,1,80,10|0,0:0|0:0,0:0:0:0:
120,224,78083,2,0,P|108:184|100:132,1,80,10|0,0:0|0:0,0:0:0:0:
40,72,78416,1,10,0:0:0:0:
8,164,78583,1,8,0:0:0:0:
120,224,78749,6,0,B|240:212|240:212|216:252,1,160,6|8,0:0|0:0,0:0:0:0:
256,336,79249,1,2,0:0:0:0:
256,336,79416,2,0,L|344:196,1,160,2|8,0:0|0:0,0:0:0:0:
280,128,79916,1,2,0:0:0:0:
280,128,80083,6,0,P|352:108|424:156,1,160,2|8,0:0|0:0,0:0:0:0:
460,240,80583,1,2,0:0:0:0:
460,240,80749,2,0,P|464:288|460:336,1,80,2|0,0:0|0:0,0:0:0:0:
368,340,81083,2,0,P|364:292|368:244,1,80,8|0,0:0|0:0,0:0:0:0:
420,150,81416,6,0,B|452:106|444:46|444:46|420:34|388:38,1,160,6|8,0:0|0:0,0:0:0:0:
304,72,81916,1,2,0:0:0:0:
304,72,82083,2,0,B|264:92|224:76|224:76|180:60|140:80,1,160,2|8,0:0|0:0,0:0:0:0:
64,124,82583,1,2,0:0:0:0:
64,124,82749,6,0,B|76:176|76:176|52:228|60:288,1,160,2|8,0:0|0:0,0:0:0:0:
132,340,83249,1,2,0:0:0:0:
132,340,83416,2,0,P|184:328|224:324,1,80,2|0,0:0|0:0,0:0:0:0:
300,356,83749,1,8,0:0:0:0:
388,320,83916,1,8,0:0:0:0:
500,372,84083,6,0,B|504:316|504:316|492:272|492:272|496:212,1,160,6|8,0:0|0:0,0:0:0:0:
452,128,84583,1,2,0:0:0:0:
452,128,84749,2,0,P|408:152|300:120,1,160,2|8,0:0|0:0,0:0:0:0:
240,56,85249,1,2,0:0:0:0:
240,56,85416,6,0,P|248:112|256:228,1,160,2|8,0:0|0:0,0:0:0:0:
164,248,85916,1,2,0:0:0:0:
164,248,86083,2,0,P|120:240|84:236,1,80,2|0,0:0|0:0,0:0:0:0:
40,348,86416,2,0,P|79:343|119:336,1,80,8|0,0:0|0:0,0:0:0:0:
240,280,86749,6,0,P|303:233|387:268,1,160,6|0,0:0|0:0,0:0:0:0:
424,347,87249,1,2,0:0:0:0:
424,347,87416,2,0,L|440:183,1,160,6|2,0:0|0:0,0:0:0:0:
440,188,88083,5,6,0:0:0:0:
500,260,88249,1,10,0:0:0:0:
428,320,88416,1,2,0:0:0:0:
368,248,88583,2,0,P|304:200|200:184,1,160,6|8,0:0|0:0,0:0:0:0:
208,184,88999,1,8,0:0:0:0:
188,188,89083,2,0,L|140:196,3,40,8|8|8|8,0:0|0:0|0:0|0:0,0:0:0:0:
112,224,89416,6,0,L|84:56,2,160,6|10|0,0:0|0:0|0:0,0:0:0:0:
58,304,90249,1,2,0:0:0:0:
136,360,90416,1,8,0:0:0:0:
192,282,90583,2,0,L|360:254,2,160,6|2|2,0:0|0:0|0:0,0:0:0:0:
136,360,91416,2,0,P|104:320|96:276,1,80,2|0,0:0|0:0,0:0:0:0:
152,214,91749,2,0,P|184:254|192:298,1,80,10|0,0:0|0:0,0:0:0:0:
60,200,92083,6,0,P|96:140|184:124,2,160,6|10|2,0:0|0:0|0:0,0:0:0:0:
96,292,92916,1,2,0:0:0:0:
152,214,93083,1,8,0:0:0:0:
247,223,93249,2,0,P|307:259|323:347,2,160,6|2|2,0:0|0:0|0:0,0:0:0:0:
152,214,94083,2,0,P|140:168|136:128,1,80,2|0,0:0|0:0,0:0:0:0:
180,48,94416,2,0,P|226:36|266:32,1,80,10|0,0:0|0:0,0:0:0:0:
352,112,94749,6,0,B|396:120|432:104|432:104|472:116|472:116|516:108,2,160,6|10|0,0:0|0:0|0:0,0:0:0:0:
288,184,95583,1,2,0:0:0:0:
360,248,95749,1,8,0:0:0:0:
296,320,95916,2,0,B|252:328|216:312|216:312|176:324|176:324|132:316,2,160,6|2|2,0:0|0:0|0:0,0:0:0:0:
360,248,96749,2,0,P|384:284|388:340,1,80,2|0,0:0|0:0,0:0:0:0:
296,320,97083,2,0,P|272:284|268:228,1,80,10|0,0:0|0:0,0:0:0:0:
224,128,97416,6,0,B|176:124|176:124|144:144|112:148|112:148|52:144,2,160,6|10|0,0:0|0:0|0:0,0:0:0:0:
312,88,98249,1,2,0:0:0:0:
368,168,98416,1,8,0:0:0:0:
496,172,98583,6,0,P|424:184|380:260,2,160,6|2|2,0:0|0:0|0:0,0:0:0:0:
476,268,99416,2,0,P|466:307|456:356,1,80,2|0,0:0|0:0,0:0:0:0:
364,364,99749,2,0,P|344:330|321:296,1,80,10|0,0:0|0:0,0:0:0:0:
216,232,100083,6,0,B|156:212|108:248|108:248|48:232,2,160,6|10|0,0:0|0:0|0:0,0:0:0:0:
296,176,100916,1,2,0:0:0:0:
300,272,101083,1,8,0:0:0:0:
356,348,101249,2,0,B|416:368|464:332|464:332|524:348,2,160,6|2|2,0:0|0:0|0:0,0:0:0:0:
300,272,102083,2,0,L|216:264,1,80,2|0,0:0|0:0,0:0:0:0:
160,340,102416,2,0,L|244:348,1,80,10|0,0:0|0:0,0:0:0:0:
356,348,102749,6,0,P|392:280|356:196,2,160,6|10|0,0:0|0:0|0:0,0:0:0:0:
300,272,103583,1,2,0:0:0:0:
239,347,103749,1,8,0:0:0:0:
183,271,103916,2,0,P|115:235|31:271,2,160,6|2|2,0:0|0:0|0:0,0:0:0:0:
239,347,104749,2,0,P|292:332|320:328,1,80,2|0,0:0|0:0,0:0:0:0:
372,248,105083,2,0,P|319:233|291:229,1,80,10|0,0:0|0:0,0:0:0:0:
152,192,105416,6,0,B|140:112|140:112|156:28,1,160,6|8,0:0|0:0,0:0:0:0:
260,36,105916,1,2,0:0:0:0:
260,36,106083,2,0,B|272:116|272:116|256:200,1,160,2|8,0:0|0:0,0:0:0:0:
152,192,106583,1,2,0:0:0:0:
152,192,106749,2,0,P|120:256|144:340,1,160,2|8,0:0|0:0,0:0:0:0:
232,272,107249,1,2,0:0:0:0:
232,272,107416,2,0,L|320:264,1,80,2|0,0:0|0:0,0:0:0:0:
416,288,107749,2,0,L|408:200,1,80,8|0,0:0|0:0,0:0:0:0:
288,156,108083,6,0,P|340:140|444:124,1,160,6|8,0:0|0:0,0:0:0:0:
508,40,108583,1,2,0:0:0:0:
508,40,108749,2,0,P|456:24|352:8,1,160,2|8,0:0|0:0,0:0:0:0:
260,64,109249,1,2,0:0:0:0:
260,64,109416,2,0,P|220:104|116:112,1,160,2|8,0:0|0:0,0:0:0:0:
32,56,109916,1,2,0:0:0:0:
32,56,110083,2,0,L|36:140,1,80,2|0,0:0|0:0,0:0:0:0:
112,212,110416,1,8,0:0:0:0:
48,296,110583,1,8,0:0:0:0:
176,352,110749,6,0,B|224:344|224:344|284:356|284:356|340:348,1,160,6|8,0:0|0:0,0:0:0:0:
436,276,111249,1,2,0:0:0:0:
436,276,111416,2,0,B|386:283|386:283|326:271|326:271|278:279,1,160,2|8,0:0|0:0,0:0:0:0:
160,224,111916,1,2,0:0:0:0:
160,224,112083,2,0,B|136:184|136:184|140:116|204:88,1,160,2|8,0:0|0:0,0:0:0:0:
296,80,112583,1,2,0:0:0:0:
312,184,112749,1,6,0:0:0:0:
56,144,113083,1,10,0:0:0:0:
209,354,113416,5,12,0:0:0:0:
209,354,113583,1,8,0:0:0:0:
412,296,113916,1,8,0:0:0:0:
412,296,114083,1,8,0:0:0:0:
208,245,114416,1,8,0:0:0:0:
208,245,114583,1,12,0:0:0:0:
411,187,114916,1,8,0:0:0:0:
411,187,115083,2,0,P|416:148|404:104,1,80,8|0,0:0|0:0,0:0:0:0:
320,48,115416,5,8,0:0:0:0:
214,163,115583,1,8,0:0:0:0:
324,158,115749,1,0,0:0:0:0:
209,52,115916,1,4,1:1:0:0:
256,192,115999,12,0,120083,0:0:0:0:
