osu file format v14

[General]
AudioFilename: tmty.mp3
AudioLeadIn: 0
PreviewTime: 57249
Countdown: 0
SampleSet: Soft
StackLeniency: 0.7
Mode: 0
LetterboxInBreaks: 0
WidescreenStoryboard: 0

[Editor]
Bookmarks: 105389
DistanceSpacing: 1
BeatDivisor: 4
GridSize: 4
TimelineZoom: 1.6

[Metadata]
Title:Take me*Take you
TitleUnicode:Take me☆Take you
Artist:Takamori Natsumi, Takada Yuuki, Takahashi Karin, Hanamori Yumiri, Harada Sayaka
ArtistUnicode:高森奈津美、高田憂希、高橋花林、花守ゆみり、原田彩楓
Creator:Yamicchi
Version:REGULAR
Source:アイドルマスター シンデレラガールズ スターライトステージ
Tags:The iDOLM@STER Cinderella Girls Starlight Stage im@s imas idolmaster event version Aidorumasutaa Shinderera Gaaruzu Sutaaraito Suteeji Hikan 前川みく Maekawa Miku 依田芳乃 Yorita Yoshino 佐藤心 Sato Shin 三船美優 Mifune Miyu 森久保乃々Morikubo Nono
BeatmapID:1380706
BeatmapSetID:650946

[Difficulty]
HPDrainRate:4
CircleSize:3.5
OverallDifficulty:4
ApproachRate:5
SliderMultiplier:1.2
SliderTickRate:1

[Events]
//Background and Video events
0,0,"debut®ular.jpg",0,0
//Break Periods
//Storyboard Layer 0 (Background)
//Storyboard Layer 1 (Fail)
//Storyboard Layer 2 (Pass)
//Storyboard Layer 3 (Foreground)
//Storyboard Sound Samples

[TimingPoints]
2750,333.333333333333,4,2,1,70,1,0
8083,-100,4,2,1,70,0,0
13416,-100,4,2,1,80,0,0
22916,-100,4,2,1,70,0,0
24083,-100,4,2,1,60,0,0
34749,-100,4,2,1,70,0,0
57416,-100,4,2,1,80,0,1
67749,-100,4,2,1,80,0,0
68083,-100,4,2,1,80,0,1
78749,-100,4,2,1,70,0,0
89416,-100,4,2,1,70,0,1
89749,-100,4,2,1,70,0,0
100083,-100,4,2,1,70,0,1
100416,-100,4,2,1,70,0,0
120083,-100,4,2,1,30,0,0

[Colours]
Combo1 : 221,216,252
Combo2 : 252,179,124
Combo3 : 142,230,171
Combo4 : 241,220,190

[HitObjects]
56,297,2749,6,0,L|40:210,1,60,8|8,0:0|0:0,0:0:0:0:
35,178,3083,2,0,P|88:145|152:145,1,120,8|8,0:0|0:0,0:0:0:0:
200,161,3583,1,8,0:0:0:0:
288,241,3916,2,0,L|280:361,1,120,8|8,0:0|0:0,0:0:0:0:
400,369,4583,2,0,L|408:249,1,120,8|8,0:0|0:0,0:0:0:0:
412,189,5083,1,8,0:0:0:0:
376,73,5416,6,0,P|328:65|296:61,1,60,8|8,0:0|0:0,0:0:0:0:
264,89,5749,2,0,P|232:109|148:105,1,120,8|8,0:0|0:0,0:0:0:0:
104,69,6249,1,8,0:0:0:0:
16,149,6583,2,0,P|12:205|20:277,1,120,8|8,0:0|0:0,0:0:0:0:
132,305,7249,2,0,P|167:256|193:202,1,120,8|8,0:0|0:0,0:0:0:0:
204,145,7749,1,8,0:0:0:0:
296,69,8083,6,0,L|360:65,1,60,12|8,0:0|0:0,0:0:0:0:
416,61,8416,1,8,0:0:0:0:
456,173,8749,1,8,0:0:0:0:
456,173,8916,2,0,L|336:181,1,120,8|8,0:0|0:0,0:0:0:0:
268,281,9583,1,8,0:0:0:0:
172,209,9916,2,0,P|149:268|160:333,1,120,8|8,0:0|0:0,0:0:0:0:
184,377,10416,1,8,0:0:0:0:
304,369,10749,6,0,L|368:365,1,60,12|8,0:0|0:0,0:0:0:0:
424,361,11083,1,8,0:0:0:0:
492,261,11416,1,8,0:0:0:0:
492,261,11583,2,0,L|484:129,1,120,8|8,0:0|0:0,0:0:0:0:
396,57,12249,1,8,0:0:0:0:
312,146,12583,1,8,0:0:0:0:
312,146,12749,2,0,P|279:95|276:38,1,120,12|8,0:0|0:0,0:0:0:0:
396,57,13416,6,0,P|434:143|396:236,1,180,6|2,0:0|0:0,0:0:0:0:
356,248,14083,1,2,0:0:0:0:
176,280,14583,1,2,0:0:0:0:
176,280,14749,2,0,P|138:194|176:101,1,180,2|2,0:0|0:0,0:0:0:0:
212,80,15416,1,2,0:0:0:0:
256,191,15749,1,8,0:0:0:0:
176,280,16083,6,0,L|360:264,1,180,6|2,0:0|0:0,0:0:0:0:
400,304,16749,1,2,0:0:0:0:
408,124,17249,1,2,0:0:0:0:
408,124,17416,2,0,L|224:108,1,180,2|2,0:0|0:0,0:0:0:0:
184,148,18082,1,2,0:0:0:0:
100,232,18416,1,8,0:0:0:0:
188,312,18749,6,0,B|232:328|280:312|280:312|328:296|376:312,1,180,6|2,0:0|0:0,0:0:0:0:
424,320,19416,1,2,0:0:0:0:
280,208,19916,1,2,0:0:0:0:
280,208,20083,2,0,B|236:192|188:208|188:208|140:224|92:208,1,180,2|2,0:0|0:0,0:0:0:0:
44,200,20750,1,2,0:0:0:0:
24,80,21083,1,10,0:0:0:0:
134,32,21416,6,0,P|198:24|254:40,1,120,6|2,0:0|0:0,0:0:0:0:
282,89,21916,1,2,0:0:0:0:
280,208,22249,1,10,0:0:0:0:
385,151,22583,1,6,0:0:0:0:
385,151,24083,6,0,P|328:170|270:159,1,120,2|2,3:2|3:2,0:2:0:0:
156,124,24749,2,0,P|97:113|41:132,1,120,2|2,3:2|3:2,0:2:0:0:
4,180,25249,2,0,L|28:304,1,120,2|2,0:2|0:2,0:2:0:0:
76,336,25749,2,0,L|152:320,1,60,2|2,3:2|0:2,0:2:0:0:
193,310,26083,1,2,3:2:0:0:
300,364,26416,1,0,3:2:0:0:
400,298,26749,6,0,B|408:240|408:240|400:176,1,120,2|2,3:2|3:2,0:2:0:0:
294,126,27416,2,0,B|286:184|286:184|294:248,1,120,2|0,3:2|3:2,0:2:0:0:
264,296,27916,2,0,P|212:320|148:312,1,120,2|2,0:2|0:2,0:2:0:0:
96,288,28416,2,0,L|88:224,1,60,2|2,3:2|0:2,0:2:0:0:
82,168,28749,1,2,3:2:0:0:
128,56,29083,1,0,3:2:0:0:
201,151,29416,6,0,P|260:160|320:136,1,120,2|2,3:2|3:2,0:2:0:0:
364,32,30083,2,0,P|409:69|431:125,1,120,2|0,3:2|3:2,0:2:0:0:
424,184,30583,2,0,L|412:312,1,120,2|2,0:2|0:2,0:2:0:0:
360,336,31083,2,0,L|292:328,1,60,2|0,3:2|0:2,0:2:0:0:
240,320,31416,1,2,3:2:0:0:
196,208,31749,1,2,3:2:0:0:
76,228,32083,6,0,B|65:161|116:115|116:115|80:56|100:-5,2,240,2|2|0,3:2|3:2|3:2,0:2:0:0:
102,282,33583,2,0,L|98:346,2,60,0|0|0,0:0|3:0|0:0,0:0:0:0:
196,208,34249,2,0,L|199:148,2,60,8|8|8,0:0|0:0|0:0,0:0:0:0:
244,248,34749,5,6,0:0:0:0:
356,208,35083,1,10,0:0:0:0:
446,284,35416,2,0,P|472:228|456:146,1,120,2|8,0:0|0:0,0:0:0:0:
440,120,35916,1,2,0:0:0:0:
322,92,36249,2,0,P|316:60|312:28,2,60,2|10|2,0:0|0:0|0:0,0:0:0:0:
276,132,36749,2,0,P|224:156|156:148,1,120,2|8,0:0|0:0,0:0:0:0:
56,92,37416,5,2,0:0:0:0:
40,212,37749,1,10,0:0:0:0:
85,322,38083,2,0,P|137:298|205:306,1,120,2|8,0:0|0:0,0:0:0:0:
252,328,38583,1,2,0:0:0:0:
364,372,38916,2,0,P|400:380|424:380,2,60,2|10|0,0:0|0:0|0:0,0:0:0:0:
336,320,39416,1,2,0:0:0:0:
392,216,39749,1,10,0:0:0:0:
298,140,40083,6,0,B|257:125|257:125|177:133,1,120,6|8,0:0|0:0,0:0:0:0:
148,182,40583,1,0,0:0:0:0:
148,182,40749,1,0,0:0:0:0:
176,300,41083,1,10,0:0:0:0:
176,300,41249,2,0,L|56:308,2,120,0|0|0,0:0|0:0|0:0,0:0:0:0:
224,336,42083,2,0,P|276:356|348:336,1,120,0|8,0:0|0:0,0:0:0:0:
396,240,42749,5,2,0:0:0:0:
396,240,42916,2,0,P|453:226|509:246,2,120,2|2|2,0:0|0:0|0:0,0:0:0:0:
276,245,43916,2,0,P|272:183|305:121,1,120,2|2,0:0|0:0,0:0:0:0:
351,106,44416,1,10,0:0:0:0:
408,88,44583,2,0,P|418:56|422:28,2,60,2|8|0,0:0|2:0|0:0,2:0:0:0:
448,132,45083,1,8,0:0:0:0:
396,240,45416,6,0,L|332:236,1,60,12|8,0:0|0:0,0:0:0:0:
240,308,45916,2,0,L|176:304,1,60,8|8,0:0|0:0,0:0:0:0:
92,224,46416,2,0,L|28:220,1,60,8|8,0:0|0:0,0:0:0:0:
244,56,48083,6,0,L|308:52,1,60,12|8,0:0|0:0,0:0:0:0:
392,136,48583,2,0,L|396:195,1,60,8|8,0:0|0:0,0:0:0:0:
316,284,49083,2,0,L|257:288,1,60,8|8,0:0|0:0,0:0:0:0:
132,48,50749,6,0,P|96:44|64:48,1,60,12|8,0:0|0:0,0:0:0:0:
8,148,51249,2,0,P|22:181|42:206,1,60,8|8,0:0|0:0,0:0:0:0:
156,205,51749,2,0,P|177:175|189:146,1,60,8|8,0:0|0:0,0:0:0:0:
464,36,52749,6,0,B|468:60|468:60|464:84|464:84|468:108|468:108|464:132|464:132|468:156|468:156|464:180|464:180|468:204|468:204|464:228,1,180,10|0,0:0|0:0,0:0:0:0:
440,268,53416,6,0,B|400:284|360:268|360:268|320:252|272:268|272:268|256:360|136:408|64:328,1,420,6|0,0:0|0:0,0:0:0:0:
60,284,54749,6,0,L|56:220,1,60,8|8,0:0|0:0,0:0:0:0:
100,184,55083,2,0,L|104:120,1,60,8|8,0:0|0:0,0:0:0:0:
260,32,55749,2,0,L|324:28,1,60,8|8,0:0|0:0,0:0:0:0:
360,72,56083,2,0,L|424:76,1,60,8|8,0:0|0:0,0:0:0:0:
484,244,56749,2,0,L|348:236,1,120,8|8,0:0|0:0,0:0:0:0:
268,168,57416,6,0,P|248:224|260:296,1,120,6|8,0:0|0:0,0:0:0:0:
360,344,58083,2,0,L|420:348,2,60,2|0|8,0:0|0:0|0:0,0:0:0:0:
246,381,58749,2,0,L|110:373,1,120,6|8,0:0|0:0,0:0:0:0:
61,272,59416,2,0,L|1:268,2,60,2|0|8,0:0|0:0|0:0,0:0:0:0:
151,199,60083,5,6,0:0:0:0:
214,102,60416,1,10,0:0:0:0:
137,12,60749,1,2,0:0:0:0:
27,58,61083,1,10,0:0:0:0:
36,176,61416,2,0,L|160:164,1,120,4|8,0:0|0:0,0:0:0:0:
204,196,61916,1,0,0:0:0:0:
204,196,62083,2,0,L|328:184,1,120,4|8,0:0|0:0,0:0:0:0:
444,188,62749,6,0,P|464:248|444:308,1,120,6|8,0:0|0:0,0:0:0:0:
332,320,63416,2,0,L|332:380,2,60,2|0|8,0:0|0:0|0:0,0:0:0:0:
215,300,64083,2,0,P|200:243|220:188,1,120,6|8,0:0|0:0,0:0:0:0:
331,143,64749,2,0,P|343:103|343:63,1,60,0|0,0:0|0:0,0:0:0:0:
328,28,65083,1,10,0:0:0:0:
269,13,65249,1,2,0:0:0:0:
227,57,65416,6,0,P|168:76|96:88,1,120,6|8,0:0|0:0,0:0:0:0:
40,184,66083,2,0,P|97:202|155:213,1,120,2|8,0:0|0:0,0:0:0:0:
252,144,66749,2,0,P|272:208|260:272,1,120,6|8,0:0|0:0,0:0:0:0:
236,312,67249,1,2,0:0:0:0:
236,312,67416,2,0,L|360:296,1,120,6|8,0:0|0:0,0:0:0:0:
464,248,68083,6,0,B|476:188|476:188|452:124,1,120,6|8,0:0|0:0,0:0:0:0:
356,68,68749,2,0,L|348:8,2,60,2|0|8,0:0|0:0|0:0,0:0:0:0:
272,156,69416,2,0,B|260:216|260:216|284:280,1,120,6|8,0:0|0:0,0:0:0:0:
392,316,70083,2,0,L|452:320,2,60,0|0|10,0:0|0:0|0:0,0:0:0:0:
288,372,70749,5,6,0:0:0:0:
171,341,71083,1,10,0:0:0:0:
55,373,71416,1,2,0:0:0:0:
86,257,71749,2,0,P|173:220|249:249,1,180,14|0,0:0|0:0,0:0:0:0:
288,292,72416,2,0,L|296:160,2,120,10|2|10,0:0|0:0|0:0,0:0:0:0:
396,344,73416,6,0,P|408:312|408:276,1,60,6|2,0:0|0:0,0:0:0:0:
404,228,73749,1,10,0:0:0:0:
332,132,74083,2,0,P|260:144|192:140,1,120,0|8,0:0|0:0,0:0:0:0:
92,156,74749,2,0,P|138:212|168:273,1,120,0|8,0:0|0:0,0:0:0:0:
233,352,75416,2,0,P|258:283|296:226,1,120,0|8,0:0|0:0,0:0:0:0:
388,184,76083,5,2,0:0:0:0:
385,305,76416,1,10,0:0:0:0:
506,308,76749,1,2,0:0:0:0:
509,187,77083,1,10,0:0:0:0:
448,76,77416,5,10,0:0:0:0:
388,184,77749,1,10,0:0:0:0:
325,79,78083,1,10,0:0:0:0:
267,181,78416,1,10,0:0:0:0:
152,188,78749,6,0,B|106:120|154:56|154:56|206:76,1,180,2|2,0:0|0:0,0:0:0:0:
247,90,79416,1,2,0:0:0:0:
220,264,79916,1,2,0:0:0:0:
220,264,80083,2,0,P|100:248|40:248,1,180,2|2,0:0|0:0,0:0:0:0:
4,292,80749,1,2,0:0:0:0:
118,329,81083,1,8,0:0:0:0:
220,264,81416,6,0,B|264:248|312:264|312:264|360:280|408:256,1,180,6|2,0:0|0:0,0:0:0:0:
448,232,82083,1,2,0:0:0:0:
360,80,82583,1,2,0:0:0:0:
360,80,82749,2,0,B|316:64|268:80|268:80|220:96|172:72,1,180,2|2,0:0|0:0,0:0:0:0:
132,48,83416,1,2,0:0:0:0:
56,144,83749,2,0,P|50:177|48:208,1,60,8|8,0:0|0:0,0:0:0:0:
56,264,84083,6,0,P|104:232|208:280,1,180,6|2,0:0|0:0,0:0:0:0:
224,336,84749,1,2,0:0:0:0:
400,344,85249,1,2,0:0:0:0:
400,344,85416,2,0,P|432:296|384:192,1,180,2|2,0:0|0:0,0:0:0:0:
328,176,86082,1,2,0:0:0:0:
216,208,86416,1,8,0:0:0:0:
102,171,86749,6,0,B|84:208|104:256|104:256|76:300|100:356,1,180,6|0,0:0|0:0,0:0:0:0:
144,380,87416,1,6,0:0:0:0:
248,316,87749,1,10,0:0:0:0:
352,372,88083,2,0,L|424:372,2,60,6|0|0,0:0|0:0|0:0,0:0:0:0:
328,316,88583,2,0,P|400:273|486:308,1,180,6|8,0:0|0:0,0:0:0:0:
508,208,89416,5,6,0:0:0:0:
492,88,89749,1,10,0:0:0:0:
372,104,90083,1,0,0:0:0:0:
372,104,90249,2,0,P|380:36|424:-12,2,120,2|6|2,0:0|0:0|0:0,0:0:0:0:
388,224,91249,1,2,0:0:0:0:
388,224,91416,2,0,P|422:272|426:331,1,120,2|10,0:0|0:0,0:0:0:0:
308,312,92083,5,6,0:0:0:0:
192,344,92416,1,10,0:0:0:0:
160,228,92749,1,0,0:0:0:0:
160,228,92916,2,0,P|96:212|36:208,2,120,2|6|2,0:0|0:0|0:0,0:0:0:0:
276,196,93916,1,2,0:0:0:0:
276,196,94083,2,0,P|323:150|373:116,1,120,2|10,0:0|0:0,0:0:0:0:
484,148,94749,5,6,0:0:0:0:
492,268,95083,1,10,0:0:0:0:
385,215,95416,1,0,0:0:0:0:
385,215,95583,2,0,P|374:273|398:338,2,120,2|6|2,0:0|0:0|0:0,0:0:0:0:
484,148,96583,1,2,0:0:0:0:
484,148,96749,2,0,P|439:109|370:97,1,120,2|10,0:0|0:0,0:0:0:0:
264,132,97416,5,6,0:0:0:0:
168,60,97749,1,10,0:0:0:0:
154,180,98083,1,0,0:0:0:0:
154,180,98249,2,0,P|156:213|160:248,1,60,2|8,0:0|0:0,0:0:0:0:
196,288,98583,2,0,P|256:268|320:284,1,120,6|2,0:0|0:0,0:0:0:0:
408,344,99249,1,2,0:0:0:0:
408,344,99416,2,0,P|401:284|392:225,1,120,2|10,0:0|0:0,0:0:0:0:
348,112,100083,6,0,B|315:109|315:109|264:122|264:122|227:121,2,120,6|10|0,0:0|0:0|0:0,0:0:0:0:
408,116,100916,1,2,0:0:0:0:
388,236,101249,2,0,B|420:233|420:233|471:246|471:246|508:245,2,120,6|2|2,0:0|0:0|0:0,0:0:0:0:
328,240,102082,1,2,0:0:0:0:
208,248,102416,1,10,0:0:0:0:
88,256,102749,6,0,B|80:304|80:304|92:380,2,120,6|10|0,0:0|0:0|0:0,0:0:0:0:
100,196,103583,1,2,0:0:0:0:
200,128,103916,2,0,B|208:80|208:80|196:4,2,120,6|2|2,0:0|0:0|0:0,0:0:0:0:
188,188,104750,1,2,0:0:0:0:
224,304,105083,1,10,0:0:0:0:
307,215,105416,6,0,B|360:184|424:196|424:196|428:228|416:260,1,180,6|2,0:0|0:0,0:0:0:0:
400,312,106083,1,2,0:0:0:0:
224,304,106583,1,2,0:0:0:0:
224,304,106749,2,0,P|186:228|218:128,1,180,2|2,0:0|0:0,0:0:0:0:
252,96,107416,1,2,0:0:0:0:
364,140,107749,1,8,0:0:0:0:
460,64,108083,6,0,B|456:152|456:152|460:164|460:164|456:248,1,180,6|2,0:0|0:0,0:0:0:0:
454,302,108749,1,2,0:0:0:0:
288,368,109249,1,2,0:0:0:0:
288,368,109416,2,0,P|232:312|120:304,1,180,2|2,0:0|0:0,0:0:0:0:
76,312,110083,1,2,0:0:0:0:
40,196,110416,2,0,P|44:156|56:128,1,60,8|8,0:0|0:0,0:0:0:0:
88,92,110749,6,0,B|136:76|184:96|184:96|232:116|276:96,1,180,6|2,0:0|0:0,0:0:0:0:
316,72,111416,1,2,0:0:0:0:
476,156,111916,1,2,0:0:0:0:
476,156,112083,2,0,B|488:212|488:212|420:224|396:296,1,180,2|2,0:0|0:0,0:0:0:0:
396,348,112749,1,6,0:0:0:0:
276,356,113083,1,10,0:0:0:0:
156,364,113416,6,0,L|92:368,1,60,12|8,0:0|0:0,0:0:0:0:
16,276,113916,2,0,L|75:272,1,60,8|8,0:0|0:0,0:0:0:0:
144,172,114416,2,0,L|80:176,1,60,8|12,0:0|0:0,0:0:0:0:
0,88,114916,2,0,L|59:84,1,60,8|8,0:0|0:0,0:0:0:0:
180,76,115416,1,8,0:0:0:0:
180,76,115583,1,8,0:0:0:0:
244,172,115916,5,4,1:1:0:0:
256,192,116083,12,0,120083,0:0:0:0:
