osu file format v14

[General]
AudioFilename: tmty.mp3
AudioLeadIn: 0
PreviewTime: 57249
Countdown: 0
SampleSet: Soft
StackLeniency: 0.4
Mode: 0
LetterboxInBreaks: 0
WidescreenStoryboard: 0

[Editor]
Bookmarks: 2644,7978,9978,10061,10144,13311,18644,23978,34644,44894,67644,67978,78644,89311,89644,94728,100311,105394,119978
DistanceSpacing: 1.2
BeatDivisor: 4
GridSize: 4
TimelineZoom: 2.699999

[Metadata]
Title:Take me*Take you
TitleUnicode:Take me☆Take you
Artist:Takamori Natsumi, Takada Yuuki, Takahashi Karin, Hanamori Yumiri, Harada Sayaka
ArtistUnicode:高森奈津美、高田憂希、高橋花林、花守ゆみり、原田彩楓
Creator:Yamicchi
Version:MASTER+
Source:アイドルマスター シンデレラガールズ スターライトステージ
Tags:The iDOLM@STER Cinderella Girls Starlight Stage im@s imas idolmaster event version Aidorumasutaa Shinderera Gaaruzu Sutaaraito Suteeji Hikan 前川みく Maekawa Miku 依田芳乃 Yorita Yoshino 佐藤心 Sato Shin 三船美優 Mifune Miyu 森久保乃々Morikubo Nono
BeatmapID:1379229
BeatmapSetID:650946

[Difficulty]
HPDrainRate:6.5
CircleSize:4
OverallDifficulty:8
ApproachRate:9
SliderMultiplier:1.7
SliderTickRate:1

[Events]
//Background and Video events
0,0,"master+.jpg",0,0
//Break Periods
//Storyboard Layer 0 (Background)
//Storyboard Layer 1 (Fail)
//Storyboard Layer 2 (Pass)
//Storyboard Layer 3 (Foreground)
//Storyboard Sound Samples

[TimingPoints]
2750,333.333333333333,4,2,1,60,1,0
2750,-133.333333333333,4,2,1,60,0,0
8083,-100,4,2,1,70,0,0
13416,-100,4,2,1,80,0,0
22916,-100,4,2,1,70,0,0
23083,-100,4,2,1,65,0,0
23249,-100,4,2,1,60,0,0
23416,-100,4,2,1,55,0,0
23583,-100,4,2,1,50,0,0
23749,-100,4,2,1,45,0,0
23916,-100,4,2,1,40,0,0
24083,-125,4,2,1,60,0,0
34749,-100,4,2,1,70,0,0
53416,-133.333333333333,4,2,1,60,0,0
57416,-83.3333333333333,4,2,1,80,0,1
67749,-83.3333333333333,4,2,1,80,0,0
68083,-83.3333333333333,4,2,1,80,0,1
78749,-100,4,2,1,70,0,0
83749,-100,4,2,1,70,0,0
83833,-100,4,2,1,5,0,0
83916,-100,4,2,1,70,0,0
83999,-100,4,2,1,5,0,0
84083,-100,4,2,1,70,0,0
89083,-83.3333333333333,4,2,1,70,0,0
89416,-83.3333333333333,4,2,1,70,0,1
89749,-83.3333333333333,4,2,1,70,0,0
100083,-83.3333333333333,4,2,1,70,0,1
100416,-83.3333333333333,4,2,1,70,0,0
120083,-83.3333333333333,4,2,1,30,0,0

[Colours]
Combo1 : 186,228,158
Combo2 : 243,210,78
Combo3 : 252,103,155
Combo4 : 240,193,159

[HitObjects]
128,128,2749,5,8,0:0:0:0:
248,88,2916,1,8,0:0:0:0:
223,212,3083,1,8,0:0:0:0:
208,208,3416,1,8,0:0:0:0:
328,168,3583,2,0,L|324:248,1,63.7500024318696,8|0,0:0|0:0,0:0:0:0:
320,336,3916,5,8,0:0:0:0:
304,332,4249,1,8,0:0:0:0:
288,328,4583,2,8,L|416:312,1,127.500004863739
496,304,5083,1,8,0:0:0:0:
120,347,5416,5,8,0:0:0:0:
164,216,5583,1,8,0:0:0:0:
256,320,5749,1,8,0:0:0:0:
240,316,6083,1,8,0:0:0:0:
376,289,6249,2,0,L|380:369,1,63.7500024318696,8|0,0:0|0:0,0:0:0:0:
444,192,6583,5,8,0:0:0:0:
460,184,6916,1,8,0:0:0:0:
476,176,7249,2,8,L|492:316,1,127.500004863739
500,384,7749,1,8,0:0:0:0:
252,192,8083,5,12,0:0:0:0:
368,116,8249,1,8,0:0:0:0:
304,288,8416,2,0,L|208:284,1,85,8|0,0:0|0:0,0:0:0:0:
362,195,8749,1,12,0:0:0:0:
413,290,8916,2,0,L|409:386,1,85,8|0,0:0|0:0,0:0:0:0:
471,197,9249,6,0,P|480:156|470:108,1,85,8|0,0:0|0:0,0:0:0:0:
280,74,9583,2,0,P|271:115|281:163,1,85,8|0,0:0|0:0,0:0:0:0:
404,276,9916,1,12,0:0:0:0:
236,340,10083,1,0,0:0:0:0:
232,328,10166,1,0,0:0:0:0:
228,316,10249,1,8,0:0:0:0:
116,176,10416,2,0,L|24:168,1,85,8|0,0:0|0:0,0:0:0:0:
264,84,10749,5,12,0:0:0:0:
172,228,10916,1,8,0:0:0:0:
208,224,10999,1,8,0:0:0:0:
244,220,11083,2,0,L|336:212,1,85,8|0,0:0|0:0,0:0:0:0:
144,320,11416,1,8,0:0:0:0:
240,116,11583,1,8,0:0:0:0:
100,188,11749,1,8,0:0:0:0:
302,328,11916,5,8,0:0:0:0:
316,312,12249,1,8,0:0:0:0:
240,116,12416,1,8,0:0:0:0:
228,300,12583,1,8,0:0:0:0:
436,240,12749,1,12,0:0:0:0:
402,66,12916,5,8,0:0:0:0:
383,62,12999,1,8,0:0:0:0:
357,65,13083,1,8,0:0:0:0:
328,77,13166,1,8,0:0:0:0:
291,85,13249,1,8,0:0:0:0:
247,78,13333,1,8,0:0:0:0:
199,59,13416,6,0,P|144:120|144:208,1,170,6|8,0:0|0:0,0:0:0:0:
328,184,13916,5,2,0:0:0:0:
328,184,14083,2,0,P|383:244|383:332,1,170,2|8,0:0|0:0,0:0:0:0:
130,345,14583,5,2,0:0:0:0:
130,345,14749,2,0,B|144:300|188:288|188:288|232:300|272:288,1,170,2|8,0:0|0:0,0:0:0:0:
352,144,15249,5,2,0:0:0:0:
352,144,15416,2,0,L|236:132,1,85,2|0,0:0|0:0,0:0:0:0:
92,116,15749,1,8,0:0:0:0:
184,264,15916,1,0,0:0:0:0:
256,64,16083,6,0,B|268:32|268:32|340:-4|404:36,1,170,6|8,0:0|0:0,0:0:0:0:
428,212,16583,5,2,0:0:0:0:
428,212,16749,2,0,B|416:244|416:244|344:280|280:240,1,170,2|8,0:0|0:0,0:0:0:0:
104,152,17249,5,2,0:0:0:0:
104,152,17416,2,0,P|112:200|120:336,1,170,2|8,0:0|0:0,0:0:0:0:
241,235,17916,5,2,0:0:0:0:
19,203,18083,2,0,P|23:160|30:118,1,85,2|0,0:0|0:0,0:0:0:0:
176,28,18416,1,8,0:0:0:0:
276,164,18583,1,8,0:0:0:0:
480,80,18749,6,0,B|456:48|416:24|416:24|368:36|328:72,1,170,6|8,0:0|0:0,0:0:0:0:
320,208,19249,5,2,0:0:0:0:
320,208,19416,2,0,B|344:240|384:264|384:264|432:252|472:216,1,170,2|8,0:0|0:0,0:0:0:0:
268,132,19916,5,2,0:0:0:0:
268,132,20083,2,0,P|232:184|268:284,1,170,2|8,0:0|0:0,0:0:0:0:
459,226,20583,5,2,0:0:0:0:
459,226,20749,2,0,P|396:211|372:208,1,85,2|0,0:0|0:0,0:0:0:0:
292,368,21083,2,0,P|333:360|375:350,1,85,10|0,0:0|0:0,0:0:0:0:
208,216,21416,6,0,P|156:208|64:200,1,127.5,6|0,0:0|0:0,0:0:0:0:
48,200,21749,1,10,0:0:0:0:
256,104,21916,2,0,L|248:20,1,85,2|0,0:0|0:0,0:0:0:0:
288,184,22249,2,0,L|296:268,1,85,10|0,0:0|0:0,0:0:0:0:
176,136,22583,1,6,0:0:0:0:
169,124,22916,5,2,0:0:0:0:
301,200,23083,1,2,0:0:0:0:
176,264,23250,1,2,0:0:0:0:
176,136,23416,1,2,0:0:0:0:
272,200,23583,1,2,0:0:0:0:
183,251,23750,1,2,0:0:0:0:
191,162,23916,1,2,0:0:0:0:
280,289,24083,6,0,B|308:300|344:288|344:288|380:276|420:288,1,136,2|2,3:2|3:2,3:2:0:0:
496,304,24583,1,0,0:2:0:0:
436,164,24749,2,0,P|397:158|356:160,1,68,2|0,3:2|0:2,0:2:0:0:
288,192,25083,1,2,3:2:0:0:
168,96,25249,6,0,P|180:200|184:256,1,136,2|2,0:2|0:2,0:2:0:0:
40,240,25749,1,2,3:2:0:0:
136,168,25916,1,2,0:2:0:0:
168,328,26083,2,0,P|218:319|252:316,1,68,2|0,3:2|0:2,0:2:0:0:
336,352,26416,2,0,P|386:360|420:364,1,68,0|0,3:2|0:2,0:2:0:0:
480,232,26749,6,0,B|492:180|492:180|484:92,1,136,2|2,3:2|3:2,3:2:0:0:
416,36,27249,1,0,0:2:0:0:
292,108,27416,2,0,L|204:116,1,68,2|0,3:2|0:2,0:2:0:0:
160,52,27749,1,2,3:2:0:0:
48,156,27916,6,0,L|64:308,1,136,2|2,0:2|0:2,0:2:0:0:
72,380,28416,1,2,3:2:0:0:
164,224,28583,1,2,0:2:0:0:
244,364,28749,2,0,L|285:361,3,34,2|0|0|0,3:2|0:2|0:2|0:2,0:2:0:0:
345,291,29083,2,0,L|304:288,3,34,0|0|0|0,3:2|0:2|0:2|0:2,0:2:0:0:
419,363,29416,6,0,P|447:303|423:223,1,136,2|2,3:2|3:2,3:2:0:0:
388,156,29916,1,0,0:2:0:0:
232,220,30083,2,0,L|244:316,1,68,2|0,3:2|0:2,0:2:0:0:
253,381,30416,1,2,3:2:0:0:
72,344,30583,6,0,L|52:192,1,136,2|2,0:2|0:2,0:2:0:0:
152,60,31083,1,2,3:2:0:0:
140,188,31249,1,2,0:2:0:0:
8,68,31416,2,0,P|56:52|120:56,1,102,2|0,3:2|0:2,0:2:0:0:
152,60,31749,2,0,P|202:60|250:44,1,102,2|0,3:2|0:2,0:2:0:0:
316,8,32083,6,0,B|304:60|304:60|312:160,1,136,2|0,3:2|3:2,0:2:0:0:
320,228,32583,1,0,0:2:0:0:
196,280,32749,2,0,P|184:212|212:144,1,136,2|0,3:2|3:2,3:2:0:0:
352,76,33249,2,0,L|428:84,1,68,2|0,0:0|3:0,0:0:0:0:
492,228,33583,5,0,0:0:0:0:
404,358,33749,1,0,3:0:0:0:
336,216,33916,2,0,L|412:224,1,68,0|0,0:0|3:0,0:0:0:0:
264,360,34249,5,8,0:0:0:0:
320,140,34416,1,8,0:0:0:0:
102,202,34583,1,8,0:0:0:0:
244,160,34750,6,0,L|252:248,1,85,6|0,0:0|0:0,0:0:0:0:
96,348,35083,1,10,0:0:0:0:
116,216,35249,1,0,0:0:0:0:
216,335,35416,2,0,L|304:327,1,85,2|0,0:0|0:0,0:0:0:0:
488,312,35749,1,10,0:0:0:0:
360,380,35916,6,0,P|348:332|332:232,1,127.5,2|0,0:0|0:0,0:0:0:0:
336,208,36249,1,2,0:0:0:0:
509,105,36416,1,10,0:0:0:0:
460,220,36583,1,2,0:0:0:0:
310,87,36749,1,2,0:0:0:0:
488,92,36916,1,0,0:0:0:0:
289,74,37083,2,0,L|201:82,1,85,8|0,0:0|0:0,0:0:0:0:
24,168,37416,6,0,P|8:208|12:264,1,85,2|0,0:0|0:0,0:0:0:0:
84,372,37749,1,10,0:0:0:0:
112,228,37916,1,0,0:0:0:0:
256,322,38083,2,0,P|194:313|160:310,1,85,2|0,0:0|0:0,0:0:0:0:
328,244,38416,1,10,0:0:0:0:
432,384,38583,6,0,P|448:332|436:256,1,127.5,2|0,0:0|0:0,0:0:0:0:
420,220,38916,1,2,0:0:0:0:
268,296,39082,1,10,0:0:0:0:
278,126,39249,1,2,0:0:0:0:
352,352,39416,5,2,0:0:0:0:
335,349,39499,1,0,0:0:0:0:
319,346,39584,1,0,0:0:0:0:
303,343,39666,1,0,0:0:0:0:
272,356,39749,5,10,0:0:0:0:
239,346,39834,1,0,0:0:0:0:
206,341,39916,1,0,0:0:0:0:
173,336,39999,1,0,0:0:0:0:
135,357,40083,6,0,P|119:305|79:221,1,127.5,6|0,0:0|0:0,0:0:0:0:
64,200,40416,1,8,0:0:0:0:
224,128,40583,1,0,0:0:0:0:
206,302,40749,1,0,0:0:0:0:
192,284,41083,5,10,0:0:0:0:
344,262,41249,2,0,P|356:306|360:354,1,85,0|2,0:0|0:0,0:0:0:0:
208,211,41583,2,0,P|212:168|224:128,1,85,0|8,0:0|0:0,0:0:0:0:
220,320,41916,1,0,0:0:0:0:
56,221,42083,1,0,0:0:0:0:
224,128,42249,1,0,0:0:0:0:
12,124,42416,1,8,0:0:0:0:
68,240,42583,1,2,0:0:0:0:
180,32,42749,5,2,0:0:0:0:
236,148,42916,2,0,P|297:140|336:136,1,85,2|8,0:0|0:0,0:0:0:0:
224,248,43249,2,0,P|181:243|139:237,1,85,2|0,0:0|0:0,0:0:0:0:
24,144,43583,2,0,P|16:205|12:244,1,85,2|8,0:0|0:0,0:0:0:0:
140,340,43916,6,0,P|244:332|296:332,1,127.5,2|0,0:0|0:0,0:0:0:0:
304,336,44249,1,2,0:0:0:0:
136,176,44416,1,10,0:0:0:0:
140,340,44583,1,2,0:0:0:0:
300,172,44749,5,8,0:0:0:0:
304,336,44916,1,0,0:0:0:0:
220,256,45083,1,8,0:0:0:0:
384,252,45249,1,0,0:0:0:0:
184,180,45416,5,12,0:0:0:0:
168,372,45583,1,8,0:0:0:0:
156,356,45916,5,8,0:0:0:0:
112,144,46083,1,8,0:0:0:0:
100,164,46416,5,8,0:0:0:0:
328,144,46583,1,8,0:0:0:0:
340,164,46916,5,2,0:0:0:0:
228,72,47083,1,2,0:0:0:0:
363,21,47249,1,2,0:0:0:0:
352,184,47416,2,0,L|264:176,1,85,10|0,0:0|0:0,0:0:0:0:
424,228,47749,2,0,L|512:220,1,85,2|0,0:0|0:0,0:0:0:0:
344,304,48083,5,12,0:0:0:0:
426,143,48249,1,8,0:0:0:0:
412,124,48582,5,8,0:0:0:0:
182,168,48748,1,8,0:0:0:0:
196,188,49082,5,8,0:0:0:0:
316,0,49249,2,0,B|332:44|316:84|316:84|300:124|316:168,1,170,10|2,0:0|0:0,0:0:0:0:
364,292,49748,1,2,0:0:0:0:
412,124,49915,1,2,0:0:0:0:
208,208,50082,1,10,0:0:0:0:
388,208,50249,1,2,0:0:0:0:
298,363,50415,1,2,0:0:0:0:
196,188,50582,1,2,0:0:0:0:
449,271,50748,5,12,0:0:0:0:
276,144,50915,1,8,0:0:0:0:
264,124,51248,5,8,0:0:0:0:
213,342,51415,1,8,0:0:0:0:
201,322,51748,5,8,0:0:0:0:
437,251,51915,1,8,0:0:0:0:
425,231,52249,6,0,P|363:227|337:227,1,85,2|0,0:0|0:0,0:0:0:0:
236,224,52582,1,2,0:0:0:0:
120,360,52749,2,0,P|181:363|208:364,1,85,10|0,0:0|0:0,0:0:0:0:
256,208,53082,1,2,0:0:0:0:
384,368,53248,1,0,0:0:0:0:
384,368,53332,1,0,0:0:0:0:
384,368,53416,6,0,B|336:288|384:208|384:208|432:128|384:32|384:32|344:80|360:128,1,446.250017023087,6|0,0:0|0:0,0:0:0:0:
496,176,54748,5,8,0:0:0:0:
240,144,54915,1,8,0:0:0:0:
384,32,55082,1,8,0:0:0:0:
352,288,55248,1,8,0:0:0:0:
336,272,55582,5,0,0:0:0:0:
336,272,55665,1,0,0:0:0:0:
336,272,55748,1,8,0:0:0:0:
240,16,55915,1,8,0:0:0:0:
416,96,56083,1,8,0:0:0:0:
160,192,56248,1,8,0:0:0:0:
176,176,56582,5,0,0:0:0:0:
392,200,56748,1,8,0:0:0:0:
232,120,56915,1,0,0:0:0:0:
258,350,57082,1,8,0:0:0:0:
296,344,57165,1,8,0:0:0:0:
334,338,57248,1,8,0:0:0:0:
372,332,57332,1,8,0:0:0:0:
410,326,57416,6,0,L|428:112,1,203.999993774414,6|8,0:0|0:0,0:0:0:0:
312,40,57916,1,0,0:0:0:0:
240,176,58082,1,2,0:0:0:0:
436,48,58248,1,0,0:0:0:0:
376,256,58416,2,0,L|272:248,1,101.999996887207,8|0,0:0|0:0,0:0:0:0:
28,223,58749,6,0,P|119:263|156:356,1,203.999993774414,6|8,0:0|0:0,0:0:0:0:
224,192,59248,1,0,0:0:0:0:
236,374,59415,1,0,0:0:0:0:
388,272,59582,1,0,0:0:0:0:
136,184,59749,2,0,P|156:136|204:104,1,101.999996887207,10|0,0:0|0:0,0:0:0:0:
416,60,60083,6,0,L|408:176,1,101.999996887207,6|0,0:0|0:0,0:0:0:0:
300,296,60415,1,10,0:0:0:0:
320,120,60582,1,0,0:0:0:0:
463,226,60749,1,2,0:0:0:0:
308,140,60915,1,0,0:0:0:0:
288,316,61083,2,0,L|404:324,1,101.999996887207,10|0,0:0|0:0,0:0:0:0:
208,372,61416,6,0,P|192:324|288:220,1,203.999993774414,6|8,0:0|0:0,0:0:0:0:
428,224,61915,1,0,0:0:0:0:
320,43,62082,2,0,P|308:92|324:140,1,101.999996887207,4|0,0:0|0:0,0:0:0:0:
504,180,62416,2,0,P|467:145|418:135,1,101.999996887207,8|0,0:0|0:0,0:0:0:0:
260,248,62749,6,0,B|212:272|212:272|60:264,1,203.999993774414,6|8,0:0|0:0,0:0:0:0:
32,148,63248,1,0,0:0:0:0:
200,60,63416,2,0,P|205:120|208:168,1,101.999996887207,2|0,0:0|0:0,0:0:0:0:
61,264,63749,2,0,P|55:203|53:156,1,101.999996887207,8|0,0:0|0:0,0:0:0:0:
216,36,64083,6,0,B|264:16|312:32|312:32|360:48|416:28,1,203.999993774414,6|8,0:0|0:0,0:0:0:0:
512,120,64582,1,0,0:0:0:0:
356,232,64749,2,0,P|344:184|360:128,1,101.999996887207
512,16,65082,1,10,0:0:0:0:
444,184,65248,1,2,0:0:0:0:
231,165,65416,6,0,P|147:157|103:157,1,101.999996887207,6|0,0:0|0:0,0:0:0:0:
343,339,65748,1,10,0:0:0:0:
356,134,65915,1,0,0:0:0:0:
224,293,66082,1,2,0:0:0:0:
424,241,66248,1,0,0:0:0:0:
231,165,66415,1,10,0:0:0:0:
437,155,66582,1,0,0:0:0:0:
343,339,66749,6,0,B|272:360|224:293|224:293|204:328|204:368,1,203.999993774414,6|8,0:0|0:0,0:0:0:0:
316,240,67248,1,2,0:0:0:0:
120,264,67416,2,0,P|104:320|100:376,1,101.999996887207,6|0,0:0|0:0,0:0:0:0:
300,216,67749,2,0,P|294:165|279:116,1,101.999996887207,8|0,0:0|0:0,0:0:0:0:
84,40,68082,6,0,B|36:112|88:180|88:180|116:169|136:144,1,203.999993774414,6|8,0:0|0:0,0:0:0:0:
269,17,68582,1,0,0:0:0:0:
300,216,68748,1,2,0:0:0:0:
384,100,68915,1,0,0:0:0:0:
185,133,69082,2,0,P|156:192|156:240,1,101.999996887207,8|0,0:0|0:0,0:0:0:0:
288,320,69415,6,0,B|376:296|352:352|444:324|444:324|420:308|384:300,1,203.999993774414,6|8,0:0|0:0,0:0:0:0:
216,360,69915,1,0,0:0:0:0:
288,196,70082,1,0,0:0:0:0:
110,216,70248,1,0,0:0:0:0:
296,76,70416,2,0,L|408:80,1,101.999996887207,10|0,0:0|0:0,0:0:0:0:
212,132,70749,6,0,P|195:84|214:16,1,101.999996887207,6|0,0:0|0:0,0:0:0:0:
288,196,71083,1,10,0:0:0:0:
110,216,71248,1,0,0:0:0:0:
288,176,71415,1,2,0:0:0:0:
176,316,71583,1,0,0:0:0:0:
416,368,71749,6,0,B|440:324|416:268|416:268|392:208|420:156,1,203.999993774414,14|0,0:0|0:0,0:0:0:0:
508,212,72248,1,0,0:0:0:0:
324,320,72416,2,0,P|272:312|216:308,1,101.999996887207,10|0,0:0|0:0,0:0:0:0:
56,184,72749,2,0,P|105:167|160:153,1,101.999996887207,2|0,0:0|0:0,0:0:0:0:
294,222,73083,2,0,P|310:271|324:326,1,101.999996887207,10|0,0:0|0:0,0:0:0:0:
344,120,73415,5,6,0:0:0:0:
496,192,73582,1,2,0:0:0:0:
294,222,73749,2,0,P|254:190|232:136,1,101.999996887207,10|0,0:0|0:0,0:0:0:0:
204,16,74083,2,0,P|156:96|44:108,1,203.999993774414,0|8,0:0|0:0,0:0:0:0:
233,144,74582,5,0,0:0:0:0:
233,144,74749,2,0,P|278:225|232:328,1,203.999993774414,4|8,0:0|0:0,0:0:0:0:
62,246,75249,5,0,0:0:0:0:
62,246,75416,2,0,L|164:236,1,101.999996887207
356,328,75749,1,10,0:0:0:0:
224,308,75915,1,0,0:0:0:0:
408,168,76082,6,0,P|460:156|516:168,1,101.999996887207,6|0,0:0|0:0,0:0:0:0:
328,228,76415,1,10,0:0:0:0:
299,49,76582,1,0,0:0:0:0:
237,265,76749,1,2,0:0:0:0:
419,267,76915,1,0,0:0:0:0:
159,204,77082,1,10,0:0:0:0:
187,382,77248,1,0,0:0:0:0:
328,228,77416,5,10,0:0:0:0:
84,264,77583,1,0,0:0:0:0:
344,244,77749,5,10,0:0:0:0:
72,172,77916,1,0,0:0:0:0:
360,260,78083,5,10,0:0:0:0:
0,228,78249,1,0,0:0:0:0:
252,120,78415,6,0,L|249:175,1,50.9999984436036,10|0,0:0|0:0,0:0:0:0:
286,355,78582,2,0,L|288:304,1,50.9999984436036,8|0,0:0|0:0,0:0:0:0:
144,224,78749,6,0,B|88:204|24:232|24:232|32:200|28:180,1,170,6|8,0:0|0:0,0:0:0:0:
8,92,79248,1,2,0:0:0:0:
216,136,79416,2,0,P|256:212|224:304,1,170,2|8,0:0|0:0,0:0:0:0:
144,224,79915,1,2,0:0:0:0:
308,128,80083,6,0,B|376:96|444:120|444:120|432:144|408:164,1,170,2|8,0:0|0:0,0:0:0:0:
352,208,80582,1,2,0:0:0:0:
192,104,80748,1,2,0:0:0:0:
372,36,80915,1,0,0:0:0:0:
172,88,81083,2,8,P|160:44|168:0,1,85,8|0,0:0|0:0,0:0:0:0:
236,188,81415,6,0,B|168:216|120:168|120:168|128:216,1,170,6|8,0:0|0:0,0:0:0:0:
152,312,81915,1,2,0:0:0:0:
16,164,82082,2,0,L|48:348,1,170,2|8,0:0|0:0,0:0:0:0:
160,288,82582,1,2,0:0:0:0:
356,376,82749,6,0,P|388:324|364:212,1,170,2|8,0:0|0:0,0:0:0:0:
272,292,83249,1,2,0:0:0:0:
317,87,83416,1,2,0:0:0:0:
472,228,83583,1,0,0:0:0:0:
336,72,83749,2,0,L|380:68,1,42.5,8|0,0:0|0:0,0:0:0:0:
452,216,83916,2,0,L|408:212,1,42.5,8|0,0:0|0:0,0:0:0:0:
244,140,84083,6,0,L|60:152,1,170,6|8,0:0|0:0,0:0:0:0:
136,64,84582,1,2,0:0:0:0:
327,177,84749,2,0,B|308:216|264:228|264:228|212:216|172:248,1,170,2|8,0:0|0:0,0:0:0:0:
120,336,85248,1,2,0:0:0:0:
352,300,85416,6,0,P|392:264|432:148,1,170,2|8,0:0|0:0,0:0:0:0:
360,72,85915,1,2,0:0:0:0:
264,228,86083,1,2,0:0:0:0:
431,157,86249,1,0,0:0:0:0:
208,160,86416,2,0,P|200:112|212:68,1,85,8|0,0:0|0:0,0:0:0:0:
404,157,86749,6,0,L|319:150,1,85,6|0,0:0|0:0,0:0:0:0:
228,144,87082,1,8,0:0:0:0:
320,352,87416,2,0,L|205:343,1,85,6|0,0:0|0:0,0:0:0:0:
140,336,87749,2,0,P|120:288|140:208,1,127.5,10|0,0:0|0:0,0:0:0:0:
160,184,88082,5,6,0:0:0:0:
10,108,88248,1,10,0:0:0:0:
47,221,88415,1,2,0:0:0:0:
122,71,88583,2,0,B|172:64|172:64|236:80|236:80|300:72,1,170,6|8,0:0|0:0,0:0:0:0:
308,72,88998,1,8,0:0:0:0:
324,72,89083,2,8,L|332:124,1,50.9999984436036
276,228,89249,2,8,L|268:176,1,50.9999984436036
392,16,89416,6,0,B|464:56|448:144|448:144|400:200,2,203.999993774414,6|10|0,0:0|0:0|0:0,0:0:0:0:
328,208,90249,2,0,P|360:256|416:272,1,101.999996887207,2|8,0:0|0:0,0:0:0:0:
216,168,90583,2,0,B|240:216|224:256|224:256|176:304|192:368,1,203.999993774414,6|2,0:0|0:0,0:0:0:0:
140,224,91082,1,8,0:0:0:0:
296,340,91248,1,2,0:0:0:0:
236,156,91416,2,0,P|196:120|124:108,1,101.999996887207,2|0,0:0|0:0,0:0:0:0:
368,216,91749,2,0,P|419:199|465:143,1,101.999996887207,10|0,0:0|0:0,0:0:0:0:
250,300,92083,6,0,B|208:272|152:296|152:296|96:320|48:288,2,203.999993774414,6|10|0,0:0|0:0|0:0,0:0:0:0:
472,336,92916,2,0,P|420:352|368:336,1,101.999996887207,2|8,0:0|0:0,0:0:0:0:
188,240,93249,2,0,B|180:172|180:172|204:32,1,203.999993774414,6|2,0:0|0:0,0:0:0:0:
380,96,93748,1,8,0:0:0:0:
232,144,93915,1,2,0:0:0:0:
372,12,94083,2,0,P|422:19|470:35,1,101.999996887207,2|0,0:0|0:0,0:0:0:0:
496,200,94416,2,0,P|480:248|472:304,1,101.999996887207,10|0,0:0|0:0,0:0:0:0:
308,344,94749,6,0,B|240:372|165:319|165:319|132:336|83:328,2,203.999993774414,6|10|0,0:0|0:0|0:0,0:0:0:0:
496,324,95583,2,0,P|492:269|488:222,1,101.999996887207,2|8,0:0|0:0,0:0:0:0:
344,100,95916,2,0,P|332:212|324:308,1,203.999993774414,6|2,0:0|0:0,0:0:0:0:
428,152,96415,1,8,0:0:0:0:
248,224,96582,1,2,0:0:0:0:
444,132,96749,2,0,P|450:84|423:24,1,101.999996887207,2|0,0:0|0:0,0:0:0:0:
220,108,97083,2,0,P|214:156|241:216,1,101.999996887207,10|0,0:0|0:0,0:0:0:0:
436,288,97416,6,0,B|368:316|296:296|296:296|320:316|332:348,2,203.999993774414,6|10|0,0:0|0:0|0:0,0:0:0:0:
248,224,98248,1,2,0:0:0:0:
224,384,98415,1,8,0:0:0:0:
352,212,98582,6,0,P|356:156|356:104,1,101.999996887207,6|0,0:0|0:0,0:0:0:0:
180,200,98916,2,0,P|226:231|271:257,1,101.999996887207,2|8,0:0|0:0,0:0:0:0:
275,54,99248,1,2,0:0:0:0:
89,200,99416,2,0,P|56:246|30:291,1,101.999996887207,2|0,0:0|0:0,0:0:0:0:
296,296,99748,1,10,0:0:0:0:
200,124,99915,1,8,0:0:0:0:
148,340,100083,6,0,B|84:376|8:336|8:336|12:308|40:280,2,203.999993774414,6|10|0,0:0|0:0|0:0,0:0:0:0:
340,256,100916,2,0,P|348:200|332:156,1,101.999996887207,2|8,0:0|0:0,0:0:0:0:
272,312,101249,2,0,P|404:296|480:288,1,203.999993774414,6|2,0:0|0:0,0:0:0:0:
384,380,101748,1,8,0:0:0:0:
255,213,101915,1,2,0:0:0:0:
408,368,102082,2,0,P|472:360|516:356,1,101.999996887207,2|0,0:0|0:0,0:0:0:0:
248,296,102416,2,0,P|184:288|140:284,1,101.999996887207,10|0,0:0|0:0,0:0:0:0:
72,144,102749,6,0,B|76:217|76:217|58:272|58:272|64:344,2,203.999993774414,6|10|0,0:0|0:0|0:0,0:0:0:0:
152,280,103583,2,0,L|159:381,1,101.999996887207,2|8,0:0|0:0,0:0:0:0:
252,216,103915,2,0,B|300:232|352:212|352:212|408:232|456:208,1,203.999993774414,6|2,0:0|0:0,0:0:0:0:
296,100,104415,1,8,0:0:0:0:
173,267,104583,1,2,0:0:0:0:
300,356,104749,2,0,L|292:248,1,101.999996887207,2|0,0:0|0:0,0:0:0:0:
132,188,105083,2,0,P|96:224|88:280,1,101.999996887207,10|0,0:0|0:0,0:0:0:0:
280,368,105415,6,0,P|360:352|488:340,1,203.999993774414,6|8,0:0|0:0,0:0:0:0:
384,167,105915,5,2,0:0:0:0:
384,167,106082,2,0,P|301:225|224:292,1,203.999993774414,2|8,0:0|0:0,0:0:0:0:
36,328,106582,5,2,0:0:0:0:
36,328,106749,2,0,P|20:247|8:119,1,203.999993774414,2|8,0:0|0:0,0:0:0:0:
156,228,107248,5,2,0:0:0:0:
156,228,107416,2,0,P|104:240|48:244,1,101.999996887207,2|0,0:0|0:0,0:0:0:0:
200,92,107749,2,0,P|249:80|300:76,1,101.999996887207,8|0,0:0|0:0,0:0:0:0:
436,236,108082,6,0,B|372:228|372:228|296:248|296:248|228:240,1,203.999993774414,6|8,0:0|0:0,0:0:0:0:
95,340,108582,5,2,0:0:0:0:
95,340,108749,2,0,B|156:348|156:348|232:328|232:328|296:336,1,203.999993774414,2|8,0:0|0:0,0:0:0:0:
456,248,109248,5,2,0:0:0:0:
456,248,109415,2,0,B|464:184|464:184|444:108|444:108|452:40,1,203.999993774414,2|8,0:0|0:0,0:0:0:0:
236,92,109915,5,2,0:0:0:0:
236,92,110082,1,2,0:0:0:0:
412,160,110248,1,0,0:0:0:0:
256,80,110415,2,0,L|264:28,1,50.9999984436036,8|0,0:0|0:0,0:0:0:0:
392,176,110582,2,0,L|384:226,1,50.9999984436036,8|0,0:0|0:0,0:0:0:0:
236,324,110749,6,0,P|160:260|52:288,1,203.999993774414,6|8,0:0|0:0,0:0:0:0:
84,112,111248,5,2,0:0:0:0:
84,112,111415,2,0,P|177:145|207:253,1,203.999993774414,2|8,0:0|0:0,0:0:0:0:
344,136,111915,5,2,0:0:0:0:
344,136,112082,2,0,P|268:72|160:100,1,203.999993774414,2|8,0:0|0:0,0:0:0:0:
80,296,112582,5,2,0:0:0:0:
80,296,112748,1,6,0:0:0:0:
436,232,113082,1,10,0:0:0:0:
236,360,113415,5,12,0:0:0:0:
280,168,113582,1,8,0:0:0:0:
292,188,113915,5,8,0:0:0:0:
56,216,114082,1,8,0:0:0:0:
72,232,114415,5,8,0:0:0:0:
72,32,114582,1,12,0:0:0:0:
84,52,114915,5,8,0:0:0:0:
280,76,115082,1,8,0:0:0:0:
208,140,115248,1,0,0:0:0:0:
458,42,115415,5,8,0:0:0:0:
315,254,115582,1,8,0:0:0:0:
494,217,115748,1,0,0:0:0:0:
280,76,115915,1,4,1:1:0:0:
256,192,115999,12,0,120083,0:0:0:0:
