osu file format v14

[General]
AudioFilename: noraneko.mp3
AudioLeadIn: 0
PreviewTime: 28901
Countdown: 0
SampleSet: Soft
StackLeniency: 0.7
Mode: 2
LetterboxInBreaks: 0
WidescreenStoryboard: 0

[Editor]
DistanceSpacing: 2.2
BeatDivisor: 4
GridSize: 8
TimelineZoom: 2.7

[Metadata]
Title:Ne! Ko!
TitleUnicode:ネ!コ!
Artist:Takamori Natsumi, Sendai Eri, Asakawa Yuu, Tanezaki Atsumi
ArtistUnicode:高森奈津美・仙台エリ・浅川悠・種﨑敦美
Creator:Underforest
Version:MBomb's Rain
Source:ノラと皇女と野良猫ハート
Tags:Nora to Oujo to Noraneko Heart Hato Nora, Princess and Stray Cat Noratoto ノラとと Opening TV Size はと 森慎太郎 Mori Shintarou ミントフォレスト Mintoforesuto Mintforest パトリシア・オブ・エンド Patricia of End Patorishia obu Endo 黒木未知 Kuroki Michi 夕莉シャチ Yuuri Shachi 明日原ユウキ Ashitabara Yuuki Agatsu Garden -_Magic_Bomb_-
BeatmapID:1383466
BeatmapSetID:647383

[Difficulty]
HPDrainRate:5
CircleSize:3.7
OverallDifficulty:9
ApproachRate:9
SliderMultiplier:1.6
SliderTickRate:2

[Events]
//Background and Video events
0,0,"bg.jpg",0,0
Video,0,"video.avi"
//Break Periods
//Storyboard Layer 0 (Background)
//Storyboard Layer 1 (Fail)
//Storyboard Layer 2 (Pass)
//Storyboard Layer 3 (Foreground)
//Storyboard Sound Samples

[TimingPoints]
55,329.67032967033,4,2,1,70,1,0
1538,-100,4,2,1,80,0,0
2857,-100,4,2,1,70,0,0
12005,-100,4,2,1,5,0,0
12087,-100,4,2,1,70,0,0
20576,-100,4,2,1,5,0,0
20659,-100,4,2,1,70,0,0
28983,-100,4,2,1,10,0,0
29065,-100,4,2,1,80,0,1
33269,-100,4,2,1,5,0,1
33351,-100,4,2,1,80,0,1
35247,-100,4,2,1,5,0,1
35329,-100,4,2,1,80,0,1
39533,-100,4,2,1,80,0,0
39615,-100,4,2,1,70,0,1
39656,-100,4,2,1,70,0,0
39780,-100,4,2,1,5,0,0
39862,-100,4,2,1,70,0,0
40027,-100,4,2,1,5,0,0
40109,-100,4,2,1,70,0,0
40274,-100,4,2,1,70,0,1
40315,-100,4,2,1,70,0,0
40439,-100,4,2,1,5,0,0
40522,-100,4,2,1,70,0,0
40686,-100,4,2,1,5,0,0
40769,-100,4,2,1,70,0,0
42252,-100,4,2,1,80,0,1
44725,-100,4,2,1,70,0,0

[Colours]
Combo1 : 243,220,54
Combo2 : 255,15,15
Combo3 : 187,234,2
Combo4 : 87,99,249
SliderTrackOverride : 30,30,30
SliderBorder : 255,255,250

[HitObjects]
256,192,55,5,4,0:0:0:0:
294,198,137,1,0,0:0:0:0:
325,174,219,1,6,0:0:0:0:
328,135,302,1,2,0:0:0:0:
280,192,384,1,10,1:2:0:0:
243,201,466,1,0,0:0:0:0:
216,174,548,1,2,0:0:0:0:
228,137,631,1,2,0:0:0:0:
344,192,714,5,10,1:2:0:0:
378,174,796,1,0,0:0:0:0:
379,137,878,1,2,0:0:0:0:
347,117,961,1,2,0:0:0:0:
168,192,1044,1,10,1:2:0:0:
133,174,1126,1,0,0:0:0:0:
132,137,1208,1,2,1:2:0:0:
164,117,1291,1,0,0:0:0:0:
392,192,1538,5,4,0:0:0:0:
128,192,1703,1,4,0:0:0:0:
392,192,2033,1,4,0:0:0:0:
128,192,2198,1,12,0:0:0:0:
272,192,2362,1,8,0:0:0:0:
309,196,2444,1,8,0:0:0:0:
332,166,2526,1,8,0:0:0:0:
316,131,2609,1,8,0:0:0:0:
144,192,2692,5,4,0:0:0:0:
288,192,2857,2,0,L|368:192,2,80,2|8|2,0:0|0:0|0:0,0:0:0:0:
144,192,3351,2,0,L|48:192,1,80,2|2,0:0|0:0,0:0:0:0:
344,192,3846,6,0,P|400:144|336:128,1,160,2|2,0:0|0:0,0:0:0:0:
248,192,4340,2,0,L|168:192,1,80,8|2,0:0|0:0,0:0:0:0:
320,192,4670,2,0,P|408:160|416:104,1,160,2|0,0:0|0:0,0:0:0:0:
248,192,5164,2,0,L|184:192,1,40,2|2,0:0|0:0,0:0:0:0:
376,192,5329,6,0,L|456:192,1,80,2|0,0:0|0:0,0:0:0:0:
304,192,5659,1,8,0:0:0:0:
456,192,5824,1,2,0:0:0:0:
376,192,5989,2,0,L|272:192,1,80,2|0,0:0|0:0,0:0:0:0:
152,192,6318,2,0,L|256:192,1,80,0|2,0:0|0:0,0:0:0:0:
496,192,6648,6,0,P|448:144|360:128,1,160,2|8,0:0|0:0,0:0:0:0:
256,192,7142,1,2,0:0:0:0:
408,192,7307,2,0,P|496:160|408:128,1,240,2|0,0:0|0:0,0:0:0:0:
160,192,7967,6,0,P|128:160|144:144,1,80,4|2,0:0|0:0,0:0:0:0:
416,192,8296,2,0,L|496:192,1,80,10|0,0:0|0:0,0:0:0:0:
336,192,8626,2,0,L|440:192,1,80,2|0,0:0|0:0,0:0:0:0:
240,192,8956,1,8,0:0:0:0:
80,192,9120,6,0,P|24:152|88:120,1,160,2|0,0:0|0:0,0:0:0:0:
344,192,9615,2,0,L|432:192,1,80,10|0,0:0|0:0,0:0:0:0:
264,192,9945,1,2,0:0:0:0:
352,192,10109,2,0,L|432:192,2,80,8|8|8,0:0|0:0|0:0,0:0:0:0:
96,192,10604,6,0,L|8:192,1,80,10|0,1:2|0:0,0:0:0:0:
96,192,10934,2,0,L|184:192,1,80,0|0,0:0|0:0,0:0:0:0:
416,192,11263,2,0,L|504:192,2,80,10|0|0,1:2|0:0|0:0,0:0:0:0:
160,192,11758,6,0,P|104:136|160:120,1,160,4|0,1:0|0:0,0:0:0:0:
320,192,12252,2,0,L|424:192,1,80,8|8,0:0|0:0,0:0:0:0:
160,192,12582,2,0,L|72:192,1,80,8|8,0:0|0:0,0:0:0:0:
320,192,12912,1,8,0:0:0:0:
357,188,12994,1,8,0:0:0:0:
365,151,13076,1,8,0:0:0:0:
333,132,13159,1,8,0:0:0:0:
160,192,13241,6,0,P|80:176|48:96,1,160,4|8,0:0|0:0,0:0:0:0:
240,192,13901,2,0,L|144:192,3,80,2|0|10|0,0:0|0:0|0:0|0:0,0:0:0:0:
328,192,14560,6,0,L|432:192,2,80,2|0|8,0:0|0:0|0:0,0:0:0:0:
88,192,15055,2,0,L|272:192,1,160,2|2,0:0|0:0,0:0:0:0:
152,192,15549,2,0,L|64:192,1,80,8|2,0:0|0:0,0:0:0:0:
256,192,15879,5,4,0:0:0:0:
368,192,16044,2,0,L|272:192,2,80,0|8|0,0:0|0:0|0:0,0:0:0:0:
200,192,16538,2,0,L|296:192,1,80,2|0,0:0|0:0,0:0:0:0:
384,192,16868,2,0,L|296:192,1,80,8|8,0:0|0:0,0:0:0:0:
64,192,17197,5,10,1:2:0:0:
208,192,17362,1,2,1:2:0:0:
32,192,17527,1,2,1:2:0:0:
280,192,17692,1,10,1:2:0:0:
56,192,18022,2,0,L|136:192,2,80,14|0|2,0:0|0:0|0:0,0:0:0:0:
312,192,18516,6,0,L|408:192,1,80,4|0,0:0|0:0,0:0:0:0:
224,192,18846,2,0,L|328:192,1,80,8|0,0:0|0:0,0:0:0:0:
224,192,19175,2,0,L|144:192,1,80,2|0,0:0|0:0,0:0:0:0:
248,192,19505,2,0,L|144:192,1,80,8|0,0:0|0:0,0:0:0:0:
408,192,19835,6,0,L|496:192,2,80,2|0|8,1:2|0:0|0:0,0:0:0:0:
168,192,20329,2,0,P|104:152|168:120,1,160,2|2,1:2|0:0,0:0:0:0:
256,192,20824,1,8,0:0:0:0:
96,192,20989,1,8,0:0:0:0:
352,192,21153,6,0,L|456:192,2,80,4|0|2,1:2|0:0|0:0,0:0:0:0:
112,192,21648,1,4,1:2:0:0:
256,192,21813,2,0,L|336:192,1,80,0|2,0:0|0:0,0:0:0:0:
96,192,22142,2,0,L|16:192,1,80,4|0,1:2|0:0,0:0:0:0:
176,192,22472,5,2,0:0:0:0:
416,192,22637,2,0,L|496:192,2,80,4|0|2,1:2|0:0|0:0,0:0:0:0:
240,192,23131,2,0,L|144:192,1,80,8|2,1:2|0:0,0:0:0:0:
416,192,23461,2,0,L|496:192,1,80,8|2,1:2|0:0,0:0:0:0:
240,192,23791,5,8,1:2:0:0:
360,192,23956,1,8,0:0:0:0:
398,182,24038,1,8,1:2:0:0:
410,152,24120,1,8,0:0:0:0:
378,129,24203,1,8,0:0:0:0:
336,128,24285,1,8,0:0:0:0:
296,136,24368,1,8,1:2:0:0:
272,152,24450,1,8,0:0:0:0:
296,192,24532,1,0,0:0:0:0:
400,192,24615,2,0,L|496:192,1,80,10|10,0:0|0:0,0:0:0:0:
160,192,24945,6,0,P|96:152|160:120,1,160,12|2,0:0|0:0,0:0:0:0:
200,192,25357,1,2,0:0:0:0:
312,192,25439,1,2,3:0:0:0:
348,187,25521,1,2,3:0:0:0:
351,151,25603,1,2,3:0:0:0:
315,142,25686,1,2,3:0:0:0:
160,192,25769,5,8,3:0:0:0:
124,187,25851,1,8,3:0:0:0:
121,151,25933,1,8,3:0:0:0:
157,142,26016,1,8,3:0:0:0:
272,192,26098,1,4,3:0:0:0:
311,188,26180,1,4,3:0:0:0:
345,167,26262,1,4,3:0:0:0:
366,134,26345,1,4,3:0:0:0:
176,192,26428,6,0,L|104:192,1,40,6|2,1:2|0:0,0:0:0:0:
112,192,26593,2,0,L|168:192,1,40,2|2,0:0|0:0,0:0:0:0:
272,192,26758,2,0,L|336:192,1,40,2|2,1:2|0:0,0:0:0:0:
272,192,26923,2,0,L|216:192,1,40,2|2,0:0|0:0,0:0:0:0:
64,192,27087,5,6,1:2:0:0:
25,190,27169,1,2,0:0:0:0:
7,157,27251,1,2,0:0:0:0:
27,124,27334,1,2,0:0:0:0:
216,192,27417,2,0,L|280:192,1,40,2|2,1:2|0:0,0:0:0:0:
216,192,27582,2,0,L|160:192,1,40,2|2,0:0|0:0,0:0:0:0:
392,192,27747,6,0,L|456:192,2,40,6|2|2,1:2|0:0|0:0,0:0:0:0:
280,192,27994,1,2,0:0:0:0:
104,192,28076,2,0,L|40:192,2,40,6|2|2,1:2|0:0|0:0,0:0:0:0:
216,192,28324,1,2,1:2:0:0:
392,192,28406,6,0,L|432:192,1,40,6|2,1:2|0:0,0:0:0:0:
352,192,28571,1,2,1:2:0:0:
272,192,28653,1,2,0:0:0:0:
448,192,28736,2,0,L|488:192,1,40,4|0,0:0|0:0,0:0:0:0:
384,192,28901,1,0,0:0:0:0:
288,192,28983,1,0,0:0:0:0:
112,192,29065,6,0,P|80:160|112:144,1,80,4|0,0:0|0:0,0:0:0:0:
208,192,29313,2,0,L|264:192,1,40,0|8,0:0|1:2,0:0:0:0:
136,192,29560,1,2,0:0:0:0:
400,192,29725,2,0,P|432:160|400:144,1,80,2|2,0:0|0:0,0:0:0:0:
304,192,29972,2,0,L|264:192,1,40,0|8,0:0|1:2,0:0:0:0:
376,192,30219,1,2,0:0:0:0:
144,192,30384,6,0,L|224:192,1,80,2|0,0:0|0:0,0:0:0:0:
376,192,30714,2,0,P|400:160|376:152,1,80,8|0,1:2|0:0,0:0:0:0:
120,192,31044,1,2,0:0:0:0:
264,192,31208,1,0,0:0:0:0:
96,192,31373,1,10,1:2:0:0:
216,192,31538,2,0,L|272:192,1,40,2|2,0:0|0:0,0:0:0:0:
144,192,31703,6,0,P|120:144|152:144,1,80,2|0,0:0|0:0,0:0:0:0:
216,192,32033,2,0,L|128:192,1,80,8|2,1:2|0:0,0:0:0:0:
304,192,32362,2,0,L|392:192,1,80,2|2,0:0|0:0,0:0:0:0:
328,192,32609,2,0,L|280:192,1,40,2|8,0:0|1:2,0:0:0:0:
448,192,32857,1,2,0:0:0:0:
160,192,33022,6,0,L|24:192,2,120,2|0|0,0:0|0:0|0:0,0:0:0:0:
320,192,33681,2,0,L|224:192,1,80,6|0,1:2|0:0,0:0:0:0:
80,192,34011,2,0,P|104:149|152:144,1,80,14|2,1:2|0:0,0:0:0:0:
192,192,34258,1,2,0:0:0:0:
360,192,34340,6,0,L|448:192,1,80,4|0,0:0|0:0,0:0:0:0:
280,192,34670,1,10,1:2:0:0:
440,192,34835,1,0,0:0:0:0:
152,192,35000,2,0,P|96:160|160:120,1,160,2|8,0:0|1:2,0:0:0:0:
248,192,35494,1,2,0:0:0:0:
16,192,35659,6,0,L|96:176,1,80,2|0,0:0|0:0,0:0:0:0:
248,192,35989,2,0,L|160:192,1,80,10|0,1:2|0:0,0:0:0:0:
16,192,36318,1,2,0:0:0:0:
176,192,36483,1,10,1:2:0:0:
16,192,36648,1,10,1:2:0:0:
112,192,36813,1,2,0:0:0:0:
360,192,36978,6,0,P|408:160|384:136,1,80,12|2,0:0|0:0,0:0:0:0:
352,192,37225,1,2,0:0:0:0:
248,192,37307,2,0,P|200:160|224:136,1,80,8|2,1:2|0:0,0:0:0:0:
256,192,37554,1,2,0:0:0:0:
360,192,37637,2,0,L|448:192,1,80,8|2,1:2|0:0,0:0:0:0:
384,192,37884,1,2,0:0:0:0:
280,192,37967,2,0,L|176:192,1,80,8|2,1:2|0:0,0:0:0:0:
256,192,38214,1,2,0:0:0:0:
416,192,38296,6,0,L|496:192,2,80,12|0|12,1:2|0:0|1:2,0:0:0:0:
256,192,38791,1,0,0:0:0:0:
496,192,38956,2,0,L|400:192,3,80,12|0|0|0,1:2|1:0|1:0|0:0,0:0:0:0:
144,192,39615,6,0,P|112:152|136:144,1,80,14|0,0:0|0:0,0:0:0:0:
280,192,39862,2,0,L|360:192,1,80,10|0,0:0|0:0,0:0:0:0:
264,192,40109,1,10,0:0:0:0:
496,192,40274,6,0,P|496:152|456:144,1,80,14|0,0:0|0:0,0:0:0:0:
304,192,40521,2,0,L|224:192,1,80,10|0,0:0|0:0,0:0:0:0:
320,192,40768,1,10,0:0:0:0:
80,192,40934,6,0,L|160:160,2,80,14|0|0,0:0|0:0|0:0,0:0:0:0:
176,192,41428,1,8,0:0:0:0:
328,192,41593,2,0,L|440:192,1,80,8|0,0:0|0:0,0:0:0:0:
128,192,41923,2,0,P|92:158|88:96,1,80,2|0,1:2|0:0,0:0:0:0:
408,192,42252,6,0,P|448:160|416:144,1,80,4|0,1:2|0:0,0:0:0:0:
376,192,42500,1,0,0:0:0:0:
272,192,42582,2,0,P|232:160|248:144,1,80,8|2,1:2|0:0,0:0:0:0:
296,192,42829,1,2,0:0:0:0:
184,192,42912,2,0,L|104:192,1,80,8|10,1:2|0:0,0:0:0:0:
160,192,43159,1,0,0:0:0:0:
328,192,43241,1,8,1:2:0:0:
366,193,43323,1,0,0:0:0:0:
383,159,43405,1,10,1:2:0:0:
361,128,43488,1,0,0:0:0:0:
176,192,43571,6,0,L|88:192,1,80,10|0,1:2|0:0,0:0:0:0:
366,193,43901,2,0,L|454:193,1,80,10|0,1:2|0:0,0:0:0:0:
286,193,44230,2,0,L|382:193,1,80,10|0,1:2|0:0,0:0:0:0:
104,192,44560,1,8,1:2:0:0:
368,192,44725,5,10,1:2:0:0:
104,192,45055,1,8,1:2:0:0:
368,192,45219,1,8,1:2:0:0:
224,192,45384,2,0,L|160:192,1,40,0|0,3:0|3:0,0:0:0:0:
352,192,45549,1,8,1:2:0:0:
208,192,45714,2,0,P|157:158|184:128,1,80,8|0,1:2|0:0,0:0:0:0:
456,192,46044,1,8,1:2:0:0:
208,192,46373,5,8,1:2:0:0:
456,192,46538,1,8,1:2:0:0:
96,192,46703,1,12,0:0:0:0:
