osu file format v12

[General]
AudioFilename: Takamiya Nasuno (CV Narumi Kyko) - Menimenimanimani (TV Size).mp3
AudioLeadIn: 0
PreviewTime: 1397
Countdown: 0
SampleSet: Normal
StackLeniency: 0.7
Mode: 0
LetterboxInBreaks: 0
WidescreenStoryboard: 1

[Editor]
DistanceSpacing: 1.1
BeatDivisor: 4
GridSize: 32

[Metadata]
Title:Manymany Moneymoney
TitleUnicode:メニメニマニマニ
Artist:Takamiya Nasuno
ArtistUnicode:高宮なすの
Creator:SakiK
Version:mochi
Source:てーきゅう
Tags:Cuvelia 310Re pota-row Laurier 514 C6H8O7 OhAHO Quilt frost-b-spec rrtyui mochi Yuleiyu OVanillaO kogumano-putaro
BeatmapID:297368
BeatmapSetID:114975

[Difficulty]
HPDrainRate:7
CircleSize:4
OverallDifficulty:7
ApproachRate:9
SliderMultiplier:2
SliderTickRate:1

[Events]
//Background and Video events
0,0,"BG.jpg",0,0
//Break Periods
//Storyboard Layer 0 (Background)
//Storyboard Layer 1 (Fail)
//Storyboard Layer 2 (Pass)
//Storyboard Layer 3 (Foreground)
//Storyboard Sound Samples
//Background Colour Transformations
3,100,163,162,255

[TimingPoints]
1397.08747068204,389.61038961039,4,1,1,60,1,0
13864,-83.3333333333333,4,1,1,60,0,0
26332,-133.333333333333,4,1,1,60,0,0
27111,-133.333333333333,4,2,1,5,0,0
27500,-66.6666666666667,4,1,1,60,0,0

[Colours]
Combo1 : 77,138,240
Combo2 : 253,45,50
Combo3 : 148,115,234
Combo4 : 36,164,58

[HitObjects]
326,140,1397,1,4,0:0:0:0:
495,170,1591,1,0,0:0:0:0:
315,18,1786,5,0,0:0:0:0:
176,209,1981,1,0,0:0:0:0:
148,60,2176,5,0,0:0:0:0:
273,235,2371,1,0,0:0:0:0:
273,235,2468,2,0,P|275:291|234:345,1,100
212,353,2760,1,0,0:0:0:0:
166,332,2858,1,0,0:0:0:0:
120,311,2955,6,0,L|21:361,1,100
0,146,3345,2,0,L|99:96,1,100
133,125,3637,1,0,0:0:0:0:
176,149,3734,5,0,0:0:0:0:
176,149,3832,1,0,0:0:0:0:
176,149,3929,2,0,L|240:116,1,50
264,26,4124,1,0,0:0:0:0:
264,26,4222,1,0,0:0:0:0:
264,26,4319,2,0,L|334:42,1,50
422,61,4513,5,0,0:0:0:0:
442,296,4708,1,0,0:0:0:0:
300,191,4903,5,0,0:0:0:0:
512,145,5098,1,0,0:0:0:0:
311,309,5293,6,0,P|225:334|151:301,1,150
31,308,5780,1,0,0:0:0:0:
59,266,5877,1,0,0:0:0:0:
87,224,5975,1,0,0:0:0:0:
115,183,6072,6,0,P|100:132|38:95,1,100
242,159,6462,2,0,P|257:210|319:247,1,100
385,257,6754,2,0,L|443:195,1,50
359,21,7046,5,0,0:0:0:0:
127,175,7241,1,0,0:0:0:0:
181,33,7436,5,0,0:0:0:0:
215,68,7533,1,0,0:0:0:0:
251,102,7630,2,0,L|239:236,1,100
178,254,7923,1,0,0:0:0:0:
178,254,8020,2,0,L|232:322,1,50
273,363,8215,5,0,0:0:0:0:
320,348,8312,1,0,0:0:0:0:
368,333,8410,2,0,L|428:211,1,100
490,216,8702,1,0,0:0:0:0:
490,216,8799,2,0,L|441:144,1,50
401,81,8994,5,0,0:0:0:0:
81,40,9189,6,0,L|126:100,1,50,0|0,0:0|0:0,0:0:0:0:
106,217,9384,2,0,L|179:156,1,50,0|0,0:0|0:0,0:0:0:0:
225,86,9578,2,0,L|270:146,1,50,0|0,0:0|0:0,0:0:0:0:
251,261,9773,2,0,L|324:200,1,50,0|0,0:0|0:0,0:0:0:0:
393,139,9968,6,0,P|468:173|476:230,1,100
495,266,10260,2,0,L|447:324,1,50
232,367,10552,1,0,0:0:0:0:
88,94,10747,6,0,L|206:145,1,100
229,46,11039,2,0,L|278:165,1,100,0|0,0:0|0:0,0:0:0:0:
363,108,11332,2,0,L|315:228,1,100,0|0,0:0|0:0,0:0:0:0:
416,246,11624,2,0,L|298:299,1,100,0|0,0:0|0:0,0:0:0:0:
358,382,11917,2,0,L|235:339,1,100,0|0,0:0|0:0,0:0:0:0:
45,384,12306,5,0,0:0:0:0:
162,33,12598,1,0,0:0:0:0:
406,310,12890,1,0,0:0:0:0:
205,243,13085,5,0,0:0:0:0:
205,243,13280,5,0,0:0:0:0:
190,185,13377,1,0,0:0:0:0:
199,125,13474,1,0,0:0:0:0:
228,73,13572,1,0,0:0:0:0:
274,36,13669,1,0,0:0:0:0:
331,17,13767,1,0,0:0:0:0:
390,21,13864,2,0,L|475:134,1,119.999996337891,4|0,0:0|0:0,0:0:0:0:
392,338,14254,2,0,L|307:225,1,119.999996337891
274,36,14643,5,0,0:0:0:0:
71,147,14838,1,0,0:0:0:0:
71,147,14936,2,0,P|64:223|129:259,1,119.999996337891
89,348,15228,2,0,L|181:315,1,59.9999981689454
243,294,15423,5,0,0:0:0:0:
305,67,15617,1,0,0:0:0:0:
167,104,15812,5,0,0:0:0:0:
426,136,16007,1,0,0:0:0:0:
462,183,16104,1,0,0:0:0:0:
498,231,16202,5,0,0:0:0:0:
498,231,16299,1,0,0:0:0:0:
498,231,16397,2,0,L|444:302,1,59.9999981689454
413,384,16591,1,0,0:0:0:0:
413,384,16688,1,0,0:0:0:0:
413,384,16786,2,0,L|342:330,1,59.9999981689454
323,238,16981,6,0,P|260:245|212:337,1,119.999996337891
45,97,17371,2,0,P|108:90|156:-2,1,119.999996337891
382,79,17760,5,0,0:0:0:0:
287,320,17955,1,0,0:0:0:0:
287,320,18052,2,0,P|227:321|175:247,1,119.999996337891
78,281,18345,2,0,L|124:214,1,59.9999981689454
169,140,18539,5,0,0:0:0:0:
367,186,18734,1,0,0:0:0:0:
193,25,18929,5,0,0:0:0:0:
25,206,19124,1,0,0:0:0:0:
57,256,19221,1,0,0:0:0:0:
90,306,19319,6,0,L|177:285,1,59.9999981689454
246,358,19513,2,0,L|293:282,1,59.9999981689454
394,288,19708,2,0,L|376:200,1,59.9999981689454
452,135,19903,2,0,L|378:84,1,59.9999981689454
313,37,20098,5,0,0:0:0:0:
170,222,20293,1,0,0:0:0:0:
94,101,20487,5,0,0:0:0:0:
115,333,20682,1,0,0:0:0:0:
0,186,20877,5,0,0:0:0:0:
246,140,21072,1,0,0:0:0:0:
233,298,21267,5,0,0:0:0:0:
413,147,21462,1,0,0:0:0:0:
392,356,21656,6,0,L|313:265,1,119.999996337891,0|0,0:0|0:0,0:0:0:0:
307,101,21949,2,0,L|199:230,1,119.999996337891,0|0,0:0|0:0,0:0:0:0:
199,320,22241,2,0,L|120:229,1,119.999996337891,0|0,0:0|0:0,0:0:0:0:
204,14,22630,5,0,0:0:0:0:
429,69,22825,2,0,L|386:192,1,119.999996337891
335,373,23215,5,0,0:0:0:0:
116,305,23410,1,0,0:0:0:0:
116,305,23507,2,0,L|147:219,1,59.9999981689454
52,207,23702,1,0,0:0:0:0:
96,167,23799,1,0,0:0:0:0:
141,127,23897,1,0,0:0:0:0:
186,87,23994,6,0,L|301:160,1,119.999996337891
278,249,24286,2,0,L|357:212,1,59.9999981689454,0|0,0:0|0:0,0:0:0:0:
430,176,24481,1,0,0:0:0:0:
475,215,24578,1,0,0:0:0:0:
493,272,24676,1,0,0:0:0:0:
475,328,24773,6,0,L|364:379,1,119.999996337891,0|0,0:0|0:0,0:0:0:0:
37,56,25163,2,0,L|147:4,1,119.999996337891,0|0,0:0|0:0,0:0:0:0:
388,85,25552,5,0,0:0:0:0:
401,171,25682,1,0,0:0:0:0:
312,175,25812,1,0,0:0:0:0:
326,262,25942,1,0,0:0:0:0:
260,322,26072,1,0,0:0:0:0:
171,327,26202,1,0,0:0:0:0:
105,269,26332,2,0,P|73:116|215:19,1,300.000011444092
474,144,27500,6,0,L|384:303,1,150.000005722046
400,274,28280,2,0,L|297:132,1,150.000005722046
312,153,29059,2,0,L|222:312,1,150.000005722046
6,148,29643,5,0,0:0:0:0:
302,32,29936,1,0,0:0:0:0:
352,344,30228,1,0,0:0:0:0:
