osu file format v14

[General]
AudioFilename: Menimeni.mp3
AudioLeadIn: 0
PreviewTime: 1247
Countdown: 0
SampleSet: Soft
StackLeniency: 0.7
Mode: 0
LetterboxInBreaks: 0
WidescreenStoryboard: 0

[Editor]
DistanceSpacing: 1.3
BeatDivisor: 4
GridSize: 32
TimelineZoom: 1.4

[Metadata]
Title:MeniMeni ManiMani (TV Version)
TitleUnicode:メニメニマニマニ(TVバージョン)
Artist:Takamiya Nasuno (CV:Narumi Kyoko)
ArtistUnicode:高宮なすの(CV:鳴海杏子)
Creator:Underforest
Version:Insane
Source:てーきゅう
Tags:teekyuu 2 opening tv size pop'n music ラピストリア lapistoria
BeatmapID:1076346
BeatmapSetID:506003

[Difficulty]
HPDrainRate:7
CircleSize:4
OverallDifficulty:7.5
ApproachRate:8.5
SliderMultiplier:1.8
SliderTickRate:1

[Events]
//Background and Video events
0,0,"bg.jpg",0,0
//Break Periods
//Storyboard Layer 0 (Background)
//Storyboard Layer 1 (Fail)
//Storyboard Layer 2 (Pass)
//Storyboard Layer 3 (Foreground)
//Storyboard Sound Samples

[TimingPoints]
-4985,389.61038961039,4,2,2,70,1,0
859,-133.333333333333,4,2,2,70,0,0
1151,-133.333333333333,4,2,2,5,0,0
1248,-100,4,2,1,70,0,1
1346,-100,4,2,1,70,0,0
13716,-100,4,2,1,70,0,1
13813,-100,4,2,1,70,0,0
26183,-133.333333333333,4,2,1,70,0,1
26281,-133.333333333333,4,2,1,70,0,0
30274,-133.333333333333,4,2,1,50,0,0
30469,-133.333333333333,4,2,1,30,0,0
30664,-133.333333333333,4,2,1,5,0,0

[Colours]
Combo1 : 225,5,250
Combo2 : 226,193,5
Combo3 : 0,128,64

[HitObjects]
461,124,664,5,2,0:1:0:0:
461,124,859,2,2,P|417:136|342:139,1,101.250003862381,2|0,0:1|0:1,0:1:0:0:
292,169,1248,5,6,0:0:0:0:
317,60,1443,1,0,0:0:0:0:
124,167,1638,1,8,0:0:0:0:
102,54,1833,1,0,0:0:0:0:
292,169,2027,5,2,0:0:0:0:
312,265,2222,1,0,0:0:0:0:
296,273,2320,1,0,0:0:0:0:
279,281,2417,2,0,L|232:287,1,45,8|0,0:0|0:0,0:0:0:0:
171,204,2612,2,0,L|126:199,1,45
232,110,2807,6,0,P|279:88|326:94,1,90,2|0,0:0|0:0,0:0:0:0:
415,295,3196,1,8,0:0:0:0:
415,295,3294,1,0,0:0:0:0:
415,295,3391,2,0,L|477:317,2,45,0|0|2,0:0|0:0|0:0,0:0:0:0:
155,318,3781,5,0,0:0:0:0:
349,167,3976,1,8,0:0:0:0:
155,318,4170,1,0,0:0:0:0:
349,167,4365,6,0,L|337:285,1,90,2|0,0:0|0:0,0:0:0:0:
156,321,4755,2,0,L|149:199,1,90,8|0,0:0|0:0,0:0:0:0:
320,343,5144,5,2,0:0:0:0:
364,336,5242,1,0,0:0:0:0:
401,312,5339,1,0,0:0:0:0:
426,275,5437,1,0,0:0:0:0:
433,231,5534,2,0,L|426:174,1,45,8|0,0:0|0:0,0:0:0:0:
334,132,5729,2,0,L|328:176,1,45
327,266,5924,5,2,0:0:0:0:
214,55,6118,1,0,0:0:0:0:
97,274,6313,1,8,0:0:0:0:
97,274,6411,1,0,0:0:0:0:
97,274,6508,2,0,L|93:210,2,45,0|0|2,0:0|0:0|0:0,0:0:0:0:
268,368,6898,5,0,0:0:0:0:
308,152,7092,2,0,P|347:92|295:18,1,135,8|0,0:0|0:0,0:0:0:0:
276,88,7482,6,0,P|231:89|163:102,1,90,6|0,0:0|0:0,0:0:0:0:
169,100,7774,1,0,0:0:0:0:
151,106,7872,1,8,0:0:0:0:
366,186,8066,1,0,0:0:0:0:
366,186,8164,1,0,0:0:0:0:
366,186,8261,6,0,P|374:236|356:285,1,90,6|0,0:0|0:0,0:0:0:0:
133,192,8651,2,0,P|126:153|139:103,1,90,8|0,0:0|0:0,0:0:0:0:
199,274,9040,5,6,0:0:0:0:
307,156,9235,1,0,0:0:0:0:
437,303,9430,2,0,P|395:327|336:318,1,90,8|0,0:0|0:0,0:0:0:0:
396,127,9820,6,0,P|400:176|387:216,1,90,6|0,0:0|0:0,0:0:0:0:
383,231,10112,1,0,0:0:0:0:
378,248,10209,1,8,0:0:0:0:
263,162,10404,1,0,0:0:0:0:
125,323,10599,6,0,P|177:346|230:337,1,90,6|0,0:0|0:0,0:0:0:0:
242,313,10891,2,0,P|283:307|348:332,1,90,6|0,0:0|0:0,0:0:0:0:
367,295,11183,2,0,L|380:196,1,90,6|0,0:0|0:0,0:0:0:0:
408,170,11476,2,0,L|395:71,1,90,6|0,0:0|0:0,0:0:0:0:
354,63,11768,2,0,B|328:58|328:58|289:73|289:73|255:70,1,90,14|0,0:0|0:0,0:0:0:0:
59,145,12157,5,2,0:0:0:0:
142,298,12352,1,0,0:0:0:0:
142,298,12450,1,0,0:0:0:0:
142,298,12547,1,8,0:0:0:0:
261,227,12742,1,0,0:0:0:0:
170,80,12937,5,6,0:0:0:0:
200,47,13034,1,0,0:0:0:0:
242,31,13131,1,0,0:0:0:0:
286,36,13229,1,0,0:0:0:0:
324,59,13326,1,10,0:0:0:0:
348,97,13424,1,10,0:0:0:0:
352,141,13521,1,10,0:0:0:0:
336,182,13618,1,10,0:0:0:0:
303,213,13716,6,0,P|315:256|310:307,1,90,6|0,0:0|0:0,0:0:0:0:
81,242,14105,2,0,P|77:197|89:154,1,90,8|0,0:0|0:0,0:0:0:0:
241,30,14495,5,2,0:0:0:0:
194,235,14690,1,0,0:0:0:0:
194,235,14787,1,0,0:0:0:0:
194,235,14885,2,0,L|184:311,1,45,8|0,0:0|0:0,0:0:0:0:
272,351,15079,2,0,L|277:299,1,45
316,200,15274,6,0,P|373:195|414:183,1,90,2|0,0:0|0:0,0:0:0:0:
256,95,15664,2,0,P|199:90|158:78,1,90,8|0,0:0|0:0,0:0:0:0:
149,77,15956,1,0,0:0:0:0:
131,70,16053,6,0,L|111:167,1,90,2|0,0:0|0:0,0:0:0:0:
49,346,16443,2,0,L|42:256,1,90,8|0,0:0|0:0,0:0:0:0:
31,81,16833,5,2,0:0:0:0:
244,136,17027,1,0,0:0:0:0:
74,208,17222,1,8,0:0:0:0:
150,30,17417,1,0,0:0:0:0:
199,214,17612,5,2,0:0:0:0:
242,225,17709,1,0,0:0:0:0:
285,216,17807,1,0,0:0:0:0:
321,189,17904,1,0,0:0:0:0:
340,149,18002,2,0,L|355:84,1,45,8|0,0:0|0:0,0:0:0:0:
450,60,18196,2,0,L|440:126,1,45
414,209,18391,5,2,0:0:0:0:
280,297,18586,1,0,0:0:0:0:
255,124,18781,2,0,P|213:125|140:123,1,90,8|0,0:0|0:0,0:0:0:0:
147,124,19073,1,0,0:0:0:0:
129,121,19170,5,2,0:0:0:0:
106,343,19365,1,0,0:0:0:0:
3,195,19560,1,8,0:0:0:0:
222,253,19755,1,0,0:0:0:0:
222,253,19950,6,0,P|263:262|335:267,1,90,2|0,0:0|0:0,0:0:0:0:
260,61,20339,1,8,0:0:0:0:
379,192,20534,1,0,0:0:0:0:
146,186,20729,6,0,P|138:236|156:285,1,90,2|0,0:0|0:0,0:0:0:0:
379,192,21118,2,0,P|386:153|373:103,1,90,8|0,0:0|0:0,0:0:0:0:
214,130,21508,6,0,P|245:129|303:156,1,90,6|0,0:0|0:0,0:0:0:0:
318,255,21800,2,0,P|360:279|451:240,1,135,6|6,0:0|0:0,0:0:0:0:
191,272,22287,6,0,P|204:229|200:185,1,90,2|2,0:0|0:0,0:0:0:0:
193,168,22579,1,2,0:0:0:0:
184,152,22677,1,8,0:0:0:0:
379,192,22872,1,0,0:0:0:0:
271,66,23066,6,0,L|169:64,1,90,6|0,0:0|0:0,0:0:0:0:
126,17,23359,1,0,0:0:0:0:
126,17,23456,2,0,L|56:18,1,45,8|0,0:0|0:0,0:0:0:0:
21,107,23651,2,0,L|79:108,1,45
133,195,23846,6,0,P|114:252|140:308,1,90,2|0,0:0|0:0,0:0:0:0:
99,354,24138,1,0,0:0:0:0:
99,354,24235,2,0,P|127:358|176:339,1,45,8|0,0:0|0:0,0:0:0:0:
243,315,24430,2,0,P|280:311|306:317,1,45
394,344,24625,5,6,0:0:0:0:
358,133,24820,1,2,0:0:0:0:
243,315,25015,1,6,0:0:0:0:
446,232,25209,1,2,0:0:0:0:
246,194,25404,6,0,L|239:123,2,60,2|2|2,0:0|0:0|0:0,0:0:0:0:
165,327,25794,2,0,P|150:327|135:324,5,30,6|2|2|2|2|2,0:0|0:0|0:0|0:0|0:0|0:0,0:0:0:0:
106,321,26183,6,0,P|54:327|116:209,1,270.000010299683,4|0,0:0|0:0,0:0:0:0:
74,262,27352,5,4,0:0:0:0:
174,53,27547,1,4,0:0:0:0:
169,261,28131,5,4,0:0:0:0:
199,45,28326,1,4,0:0:0:0:
274,262,28911,5,4,0:0:0:0:
230,42,29105,1,4,0:0:0:0:
230,42,29495,5,4,0:0:0:0:
94,287,29787,5,4,0:0:0:0:
379,283,30079,6,0,P|408:209|361:240,1,202.9,4|0,0:0|0:0,0:0:0:0:
