osu file format v14

[General]
AudioFilename: Menimeni.mp3
AudioLeadIn: 0
PreviewTime: 1247
Countdown: 0
SampleSet: Soft
StackLeniency: 0.7
Mode: 0
LetterboxInBreaks: 0
WidescreenStoryboard: 0

[Editor]
DistanceSpacing: 1.3
BeatDivisor: 4
GridSize: 4
TimelineZoom: 1.4

[Metadata]
Title:MeniMeni ManiMani (TV Version)
TitleUnicode:メニメニマニマニ(TVバージョン)
Artist:Takamiya Nasuno (CV:Narumi Kyoko)
ArtistUnicode:高宮なすの(CV:鳴海杏子)
Creator:Underforest
Version:Hard
Source:てーきゅう
Tags:teekyuu 2 opening tv size pop'n music ラピストリア lapistoria
BeatmapID:1076344
BeatmapSetID:506003

[Difficulty]
HPDrainRate:5
CircleSize:4
OverallDifficulty:6
ApproachRate:7.5
SliderMultiplier:1.5
SliderTickRate:1

[Events]
//Background and Video events
0,0,"bg.jpg",0,0
//Break Periods
//Storyboard Layer 0 (Background)
//Storyboard Layer 1 (Fail)
//Storyboard Layer 2 (Pass)
//Storyboard Layer 3 (Foreground)
//Storyboard Sound Samples

[TimingPoints]
-4985,389.61038961039,4,2,2,70,1,0
1248,-100,4,2,1,70,0,1
1346,-100,4,2,1,70,0,0
13716,-100,4,2,1,70,0,1
13813,-100,4,2,1,70,0,0
26183,-100,4,2,1,70,0,1
26281,-100,4,2,1,70,0,0
30274,-100,4,2,1,50,0,0
30469,-100,4,2,1,30,0,0
30664,-100,4,2,1,5,0,0

[Colours]
Combo1 : 225,5,250
Combo2 : 226,193,5
Combo3 : 0,128,64

[HitObjects]
17,39,664,5,2,0:1:0:0:
17,39,859,1,2,0:1:0:0:
200,109,1248,6,0,P|237:113|287:105,1,75,6|0,0:0|0:0,0:0:0:0:
360,61,1638,2,0,P|397:56|434:60,1,75,8|0,0:0|0:0,0:0:0:0:
488,142,2027,1,2,0:0:0:0:
448,232,2222,1,0,0:0:0:0:
448,232,2320,1,0,0:0:0:0:
448,232,2417,2,0,L|337:228,1,75,8|0,0:0|0:0,0:0:0:0:
356,326,2807,6,0,P|294:289|281:258,1,75,2|0,0:0|0:0,0:0:0:0:
208,240,3196,2,0,L|115:231,1,75,8|0,0:0|0:0,0:0:0:0:
35,233,3586,1,2,0:0:0:0:
36,135,3781,1,0,0:0:0:0:
103,64,3976,2,0,P|144:55|200:70,1,75,8|0,0:0|0:0,0:0:0:0:
273,73,4365,6,0,P|312:81|370:63,1,75,2|0,0:0|0:0,0:0:0:0:
437,110,4755,2,0,L|454:204,1,75,8|0,0:0|0:0,0:0:0:0:
493,271,5144,1,2,0:0:0:0:
467,364,5339,1,0,0:0:0:0:
385,311,5534,2,0,L|282:307,1,75,8|0,0:0|0:0,0:0:0:0:
212,318,5924,6,0,P|152:313|105:328,1,75,2|0,0:0|0:0,0:0:0:0:
65,250,6313,2,0,P|76:196|64:153,1,75,8|0,0:0|0:0,0:0:0:0:
67,167,6605,1,0,0:0:0:0:
58,160,6703,1,2,0:0:0:0:
122,87,6898,1,0,0:0:0:0:
219,91,7092,2,0,L|318:98,1,75,8|0,0:0|0:0,0:0:0:0:
389,113,7482,6,0,P|383:161|401:209,1,75,6|0,0:0|0:0,0:0:0:0:
462,251,7872,2,0,P|468:299|450:347,1,75,8|0,0:0|0:0,0:0:0:0:
367,350,8261,2,0,P|313:341|260:341,1,75,6|0,0:0|0:0,0:0:0:0:
195,348,8651,2,0,P|157:350|120:358,1,75,8|0,0:0|0:0,0:0:0:0:
51,289,9040,6,0,P|40:220|50:189,1,75,6|0,0:0|0:0,0:0:0:0:
45,118,9430,2,0,P|84:111|142:126,1,75,8|0,0:0|0:0,0:0:0:0:
207,74,9820,2,0,P|242:81|288:77,1,75,6|0,0:0|0:0,0:0:0:0:
300,80,10112,1,0,0:0:0:0:
318,84,10209,2,0,B|336:120|325:179,1,75,8|0,0:0|0:0,0:0:0:0:
294,248,10599,6,0,P|225:247|152:256,1,112.5,6|6,0:0|0:0,0:0:0:0:
74,151,11183,2,0,P|81:85|81:17,1,112.5,6|6,0:0|0:0,0:0:0:0:
213,104,11768,2,0,P|265:110|316:96,1,75,6|0,0:0|0:0,0:0:0:0:
351,32,12157,6,0,P|381:78|345:187,1,150,2|8,0:0|0:0,0:0:0:0:
425,244,12742,1,0,0:0:0:0:
333,278,12937,2,0,L|282:285,3,37.5,6|0|0|0,0:0|0:0|0:0|0:0,0:0:0:0:
260,249,13326,2,0,L|240:210,3,37.5,10|10|10|10,0:0|0:0|0:0|0:0,0:0:0:0:
210,178,13716,6,0,P|173:182|123:174,1,75,6|0,0:0|0:0,0:0:0:0:
84,262,14105,2,0,P|46:257|9:261,1,75,8|0,0:0|0:0,0:0:0:0:
46,352,14495,1,2,0:0:0:0:
142,339,14690,1,0,0:0:0:0:
142,339,14787,1,0,0:0:0:0:
142,339,14885,2,0,L|253:335,1,75,8|0,0:0|0:0,0:0:0:0:
304,300,15274,5,2,0:0:0:0:
284,204,15469,1,0,0:0:0:0:
380,180,15664,2,0,L|473:171,1,75,8|0,0:0|0:0,0:0:0:0:
511,93,16053,1,2,0:0:0:0:
436,29,16248,1,0,0:0:0:0:
356,85,16443,2,0,P|315:76|259:91,1,75,8|0,0:0|0:0,0:0:0:0:
192,119,16833,6,0,P|151:127|95:109,1,75,2|0,0:0|0:0,0:0:0:0:
25,151,17222,2,0,L|8:245,1,75,8|0,0:0|0:0,0:0:0:0:
30,321,17612,1,2,0:0:0:0:
121,354,17807,1,0,0:0:0:0:
175,273,18002,2,0,L|278:269,1,75,8|0,0:0|0:0,0:0:0:0:
321,336,18391,6,0,P|381:331|428:346,1,75,2|0,0:0|0:0,0:0:0:0:
448,251,18781,2,0,P|437:197|449:154,1,75,8|0,0:0|0:0,0:0:0:0:
446,168,19073,1,0,0:0:0:0:
455,161,19170,1,2,0:0:0:0:
392,86,19365,1,0,0:0:0:0:
293,91,19560,2,0,L|194:98,1,75,8|0,0:0|0:0,0:0:0:0:
123,113,19950,6,0,P|129:161|111:209,1,75,2|0,0:0|0:0,0:0:0:0:
50,251,20339,2,0,P|44:299|62:347,1,75,8|0,0:0|0:0,0:0:0:0:
144,353,20729,2,0,L|244:344,1,75,2|0,0:0|0:0,0:0:0:0:
317,353,21118,2,0,L|417:362,1,75,8|0,0:0|0:0,0:0:0:0:
465,237,21508,6,0,P|478:187|451:120,2,112.5,6|6|6,0:0|0:0|0:0,0:0:0:0:
382,184,22287,2,0,P|358:126|368:90,1,75,2|2,0:0|0:0,0:0:0:0:
359,101,22579,1,2,0:0:0:0:
364,87,22677,1,8,0:0:0:0:
174,142,23066,6,0,B|180:183|180:183|170:236,1,75,6|0,0:0|0:0,0:0:0:0:
87,261,23456,2,0,B|81:302|81:302|91:355,1,75,8|0,0:0|0:0,0:0:0:0:
180,366,23846,2,0,L|279:355,1,75,2|0,0:0|0:0,0:0:0:0:
352,347,24235,2,0,L|426:355,1,75,8|0,0:0|0:0,0:0:0:0:
466,266,24625,6,0,P|472:210|465:178,1,75,6|0,0:0|0:0,0:0:0:0:
507,77,25015,1,6,0:0:0:0:
408,8,25209,1,0,0:0:0:0:
306,70,25404,2,0,L|225:67,2,50,6|2|2,0:0|0:0|0:0,0:0:0:0:
335,147,25794,2,0,L|276:205,2,50,6|2|2,0:0|0:0|0:0,0:0:0:0:
412,123,26183,5,4,0:0:0:0:
412,123,27352,5,4,0:0:0:0:
412,123,27547,1,4,0:0:0:0:
119,128,28131,1,4,0:0:0:0:
119,128,28326,1,4,0:0:0:0:
263,382,28911,1,4,0:0:0:0:
263,382,29105,1,4,0:0:0:0:
125,243,29495,6,0,P|121:167|127:111,1,112.5,4|4,0:0|0:0,0:0:0:0:
252,62,30079,2,0,L|490:85,1,225.4,4|0,0:0|0:0,0:0:0:0:
