osu file format v9

[General]
AudioFilename: angel dream.mp3
AudioLeadIn: 1996
PreviewTime: 54815
Countdown: 0
SampleSet: Soft
StackLeniency: 0.7
Mode: 1
LetterboxInBreaks: 1

[Editor]
DistanceSpacing: 1.2
BeatDivisor: 4
GridSize: 8

[Metadata]
Title:Angel Dream
Artist:Takamitsu Yoko
Creator:Ra-s
Version:Taiko Oni
Source:Taiko no Tatsujin
Tags:

[Difficulty]
HPDrainRate:5
CircleSize:4
OverallDifficulty:5
ApproachRate:5
SliderMultiplier:1.4
SliderTickRate:1

[Events]
//Background and Video events
0,0,"BG.png"
//Break Periods
//Storyboard Layer 0 (Background)
//Storyboard Layer 1 (Fail)
//Storyboard Layer 2 (Pass)
//Storyboard Layer 3 (Foreground)
Sprite,Foreground,Centre,"lyrhare.png",320,435 M,0,12149,17482,320,435
Sprite,Foreground,Centre,"lyrtenshi.png",320,435 M,0,17482,22816,320,435
Sprite,Foreground,Centre,"lyrkaze.png",320,435 M,0,22816,28149,320,435
Sprite,Foreground,Centre,"lyryaku.png",320,435 M,0,33816,44482,320,435
Sprite,Foreground,Centre,"lyrshinkyu.png",320,435 M,0,44482,55149,320,435
Sprite,Foreground,Centre,"lyronaji.png",320,435 M,0,60482,65816,320,435
Sprite,Foreground,Centre,"lyrkimi.png",320,435 M,0,28149,33816,320,435
Sprite,Foreground,Centre,"lyrteto.png",320,435 M,0,55149,60482,320,435
Sprite,Foreground,Centre,"lyrmeto.png",320,435 M,0,65816,71149,320,435
Sprite,Foreground,Centre,"lyrkodo.png",320,435 M,0,71149,76482,320,435
Sprite,Foreground,Centre,"lyryuyake.png",320,435 M,0,87149,97816,320,435
Sprite,Foreground,Centre,"lyrashta.png",320,435 M,0,97816,108482,320,435
Sprite,Foreground,Centre,"lyrwish.png",320,435 M,0,108482,111149,320,435
Sprite,Foreground,Centre,"lyrangel.png",320,435 M,0,111149,113816,320,435
Sprite,Foreground,Centre,"lyrniji.png",320,435 M,0,113816,119149,320,435
Sprite,Foreground,Centre,"lyrteto.png",320,435 M,0,119149,124482,320,435
Sprite,Foreground,Centre,"lyraisat.png",320,435 M,0,124482,129816,320,435
Sprite,Foreground,Centre,"lyrmeto.png",320,435 M,0,129816,135149,320,435
Sprite,Foreground,Centre,"lyrkodo.png",320,435 M,0,135149,140149,320,435
//Storyboard Sound Samples
//Background Colour Transformations
3,100,255,179,255

[TimingPoints]
488,333.333333333333,4,2,0,100,1,0
55154,-100,4,2,0,100,0,1
76487,-100,4,2,0,100,0,0
119154,-100,4,2,0,100,0,1
141487,-100,4,2,0,100,0,1
141821,-100,4,2,0,100,0,0

[Colours]
Combo1 : 255,255,255
Combo2 : 255,128,255
Combo3 : 128,255,0
Combo4 : 0,128,255

[HitObjects]
96,64,488,1,2
96,64,571,1,2
96,64,654,1,2
160,96,821,1,2
160,96,904,1,2
160,96,987,1,2
224,128,1154,1,2
224,128,1237,1,2
224,128,1321,1,2
256,128,1487,1,2
320,160,1821,1,4
256,320,3154,1,4
192,288,4487,1,4
288,160,5821,1,4
160,192,6487,1,4
128,64,7154,1,0
192,64,7487,1,0
256,64,7821,1,0
320,128,8154,1,0
352,128,8321,5,2
384,128,8487,5,0
256,224,8821,1,0
160,192,9154,1,0
96,128,9321,5,2
96,128,9404,1,2
96,128,9487,5,0
160,96,9654,5,2
192,128,9821,5,0
192,288,10154,1,0
288,192,10487,1,0
320,160,10654,5,2
320,160,10737,1,2
320,160,10821,5,0
352,128,10987,5,2
352,128,11071,1,2
256,64,11321,5,4
192,64,11488,1,4
128,64,11654,1,4
96,96,11821,1,4
192,160,12488,1,0
256,192,12821,5,2
192,256,13154,5,0
256,256,13321,1,0
288,256,13488,5,2
320,256,13654,5,0
352,192,13988,1,0
384,160,14154,5,2
352,96,14488,5,0
384,64,14654,5,2
352,64,14821,1,2
256,128,15154,5,0
224,96,15488,5,2
160,64,15821,5,0
160,64,15988,1,0
128,64,16154,5,2
96,64,16321,5,0
160,192,16654,1,0
192,192,16821,5,2
320,160,17154,5,0
384,96,17488,5,2
352,224,17821,5,0
416,160,18154,5,2
256,256,18488,5,0
224,224,18654,1,0
192,192,18821,5,2
160,192,18987,5,0
224,96,19321,1,0
256,96,19487,5,2
128,96,19821,5,0
128,64,19987,5,2
96,64,20154,1,2
64,160,20487,5,0
96,192,20654,1,0
128,192,20821,5,2
224,192,21154,5,0
224,192,21321,1,0
224,160,21487,5,2
224,160,21654,1,2
256,160,21821,5,0
320,96,22654,5,2
320,96,22737,1,2
320,96,22821,1,2
384,128,22987,1,2
320,160,23154,5,0
352,192,23321,5,2
288,192,23487,5,0
320,224,23654,5,2
256,224,23821,5,0
192,224,23987,5,2
192,224,24071,1,2
160,224,24154,5,0
160,160,24321,5,2
192,128,24487,5,0
224,96,24654,5,2
256,96,24821,5,0
288,64,24987,5,2
320,96,25154,5,0
352,64,25321,5,2
352,64,25404,1,2
352,64,25487,5,0
384,96,25654,5,2
416,64,25821,5,0
448,96,25987,5,2
480,128,26154,5,0
448,160,26321,5,2
416,160,26487,5,0
352,160,26654,5,2
352,160,26737,1,2
352,160,26821,5,0
320,160,26987,5,2
288,160,27154,5,0
256,128,27321,5,2
256,128,27404,1,2
256,128,27487,5,0
224,128,27654,5,2
192,128,27821,5,0
192,128,27904,5,2
192,128,27987,1,2
192,128,28071,1,2
192,128,28154,5,0
160,160,28321,5,2
128,192,28487,5,0
160,224,28654,5,2
192,224,28821,5,0
224,224,28987,5,2
256,192,29154,5,0
288,224,29321,5,2
288,224,29404,1,2
288,224,29487,5,0
320,192,29654,5,2
352,160,29821,5,0
320,128,29987,5,2
352,96,30154,5,0
320,64,30321,5,2
352,32,30487,5,0
384,64,30654,5,2
384,64,30737,1,2
384,64,30821,5,0
416,96,30987,5,2
416,128,31154,5,0
448,160,31321,5,2
448,160,31404,1,2
448,160,31487,5,0
416,192,31654,5,2
384,192,31821,5,0
352,192,31987,5,2
352,192,32071,1,2
352,192,32154,5,0
320,192,32321,5,2
224,192,32654,5,0
224,192,32737,1,0
224,192,32821,1,0
160,192,32987,1,0
128,192,33154,1,0
128,192,33237,1,0
128,192,33321,1,0
96,192,33487,1,0
96,96,33821,1,0
192,64,34071,5,2
192,64,34154,1,2
256,96,34321,5,0
288,96,34487,1,0
384,64,34737,5,2
384,64,34821,1,2
416,96,34987,5,0
416,160,35321,1,0
416,160,35404,5,2
416,160,35487,1,2
384,192,35654,5,0
352,192,35821,1,0
224,192,36154,5,2
256,128,36487,5,0
256,64,36737,5,2
256,64,36821,1,2
192,64,36987,5,0
128,96,37154,1,0
96,160,37404,5,2
96,160,37487,1,2
128,160,37654,5,0
192,192,37987,1,0
192,192,38071,5,2
192,192,38154,1,2
224,192,38321,5,0
256,224,38487,1,0
352,160,38821,5,2
384,192,38987,5,0
384,192,39071,1,0
384,192,39154,1,0
416,96,39404,5,2
416,96,39487,1,2
384,64,39654,5,0
448,64,39821,1,0
288,64,40071,5,2
288,64,40154,1,2
256,64,40321,5,0
160,128,40654,1,0
160,128,40738,5,2
160,128,40821,1,2
160,96,40988,5,0
192,128,41154,1,0
288,160,41404,5,2
288,160,41488,1,2
320,192,41654,5,0
384,192,41821,1,0
384,192,41904,5,2
384,192,41988,5,0
256,256,42321,1,0
288,288,42488,1,0
288,288,42571,5,2
288,288,42654,5,0
160,256,42988,1,0
160,224,43154,1,0
160,224,43238,5,2
160,224,43321,5,0
224,160,43654,1,0
224,160,43821,1,0
224,160,43904,5,2
224,160,43988,5,0
320,96,44321,1,0
352,160,44488,1,0
416,96,44738,5,2
416,96,44821,1,2
448,128,44988,5,0
448,160,45154,1,0
384,224,45404,5,2
384,224,45488,1,2
416,256,45654,5,0
256,192,45988,1,0
224,192,46071,5,2
224,192,46154,1,2
192,128,46321,5,0
256,128,46488,1,0
288,64,46654,5,2
288,64,46738,1,2
288,64,46821,1,2
224,64,46988,1,2
160,64,47154,5,0
160,64,47238,1,0
160,64,47321,5,2
160,64,47488,5,0
160,64,47821,1,0
160,64,47904,1,0
160,64,47988,5,2
160,64,48154,5,0
160,64,48488,1,0
160,64,48571,1,0
160,64,48654,5,2
160,64,48821,5,0
160,64,49154,1,0
160,64,49238,1,0
160,64,49321,5,2
160,64,49488,5,0
384,32,49821,2,0,C|36:264|448:320,1,840
384,96,52488,1,0
384,96,52571,1,0
384,96,52654,1,0
256,128,52821,1,0
256,128,52904,1,0
256,128,52988,1,0
320,160,53154,1,0
320,160,53238,1,0
320,160,53321,1,0
320,160,53404,1,0
320,160,53488,1,0
256,192,53654,1,4
352,256,53988,1,4
352,256,54154,1,4
128,160,55154,1,0
192,128,55321,1,0
192,128,55404,1,0
192,128,55488,5,2
224,160,55654,5,0
256,128,55821,5,2
288,160,55988,5,0
288,160,56071,1,0
288,160,56154,5,2
320,128,56321,5,0
288,64,56488,1,0
288,64,56571,1,0
288,64,56654,5,2
352,64,56821,5,0
352,64,56904,1,0
352,64,56988,5,2
416,96,57154,5,0
384,128,57321,5,2
384,128,57404,1,2
384,128,57488,1,2
128,160,57821,5,0
192,128,57988,1,0
192,128,58071,1,0
192,128,58154,5,2
224,160,58321,5,0
256,128,58488,5,2
288,160,58654,5,0
288,160,58738,1,0
288,160,58821,5,2
320,128,58988,5,0
288,64,59154,1,0
288,64,59238,1,0
288,64,59321,5,2
352,64,59488,5,0
352,64,59571,1,0
352,64,59654,5,2
416,96,59821,5,0
384,128,59988,5,2
384,128,60071,1,2
384,128,60154,1,2
64,96,60488,5,0
160,160,60654,1,0
160,160,60738,1,0
160,160,60821,5,2
256,128,60988,5,0
224,96,61154,5,2
224,192,61321,5,0
224,192,61404,1,0
224,192,61488,5,2
288,224,61654,1,2
320,256,61821,5,0
352,192,61988,5,2
352,192,62071,1,2
352,192,62154,5,0
384,128,62321,5,2
384,128,62404,1,2
384,128,62488,5,0
147,57,62654,5,0
80,158,62738,1,0
81,60,62821,1,2
384,64,62988,1,2
448,96,63154,5,0
448,96,63238,1,0
448,96,63321,1,0
448,160,63488,5,2
448,160,63571,1,2
448,160,63654,1,2
448,192,63821,5,0
448,192,63904,1,0
448,192,63988,1,0
448,224,64154,5,2
448,224,64238,1,2
448,224,64321,1,2
448,256,64488,6,0,C|130:257|32:320,1,420
271,80,65821,1,0
332,84,65988,5,2
360,103,66154,5,0
304,128,66321,5,2
252,139,66488,5,0
252,139,66571,1,0
252,139,66654,5,2
207,97,66821,5,0
207,97,66904,1,0
207,97,66988,5,2
177,140,67154,5,0
76,220,67488,1,0
76,220,67571,1,0
76,220,67654,1,0
76,220,67738,1,0
76,220,67821,1,0
114,216,67988,5,2
168,236,68154,5,2
271,80,68488,5,0
332,84,68654,5,2
360,103,68821,5,0
304,128,68988,5,2
252,139,69154,5,0
252,139,69238,1,0
252,139,69321,5,2
207,97,69488,5,0
207,97,69571,1,0
207,97,69654,5,2
177,140,69821,5,0
104,142,70154,5,2
104,142,70238,1,2
104,142,70321,1,2
104,142,70404,1,2
104,142,70488,1,2
92,203,70654,5,0
148,221,70821,5,2
271,80,71154,5,0
332,84,71321,5,2
360,103,71488,5,0
304,128,71654,5,2
252,139,71821,5,0
252,139,71904,1,0
252,139,71988,5,2
207,97,72154,5,0
207,97,72238,1,0
207,97,72321,5,2
177,140,72488,5,0
82,227,72821,1,0
82,227,72904,1,0
82,227,72988,1,0
82,227,73071,1,0
82,227,73154,1,0
132,212,73321,5,2
132,212,73404,1,2
132,212,73488,1,2
196,228,73654,1,2
249,211,73821,5,0
249,211,73904,1,0
249,211,73988,1,0
309,160,74154,1,0
309,160,74238,1,0
309,160,74321,1,0
312,216,74488,1,0
312,216,74571,1,0
312,216,74654,1,0
312,216,74738,1,0
312,216,74821,1,0
312,216,74904,1,0
312,216,74988,1,0
392,239,75321,1,4
442,238,75488,1,4
436,194,75654,1,4
380,169,75821,1,4
320,160,76488,1,0
352,192,76654,5,2
288,192,76821,5,0
320,224,76988,5,2
256,224,77154,5,0
192,224,77321,5,2
192,224,77404,1,2
160,224,77488,5,0
160,160,77654,5,2
192,128,77821,5,0
224,96,77988,5,2
256,96,78154,5,0
288,64,78321,5,2
320,96,78488,5,0
352,64,78654,5,2
352,64,78737,1,2
352,64,78821,5,0
384,96,78987,5,2
416,64,79154,5,0
448,96,79321,5,2
480,128,79487,5,0
448,160,79654,5,2
416,160,79821,5,0
352,160,79987,5,2
352,160,80071,1,2
352,160,80154,5,0
320,160,80321,5,2
288,160,80487,5,0
256,128,80654,5,2
256,128,80737,1,2
256,128,80821,5,0
224,128,80987,5,2
192,128,81154,5,0
192,128,81237,5,2
192,128,81321,1,2
192,128,81404,1,2
192,128,81487,5,0
160,160,81654,5,2
128,192,81821,5,0
160,224,81987,5,2
192,224,82154,5,0
224,224,82321,5,2
256,192,82487,5,0
288,224,82654,5,2
288,224,82737,1,2
288,224,82821,5,0
320,192,82987,5,2
352,160,83154,5,0
320,128,83321,5,2
352,96,83487,5,0
320,64,83654,5,2
352,32,83821,5,0
384,64,83987,5,2
384,64,84071,1,2
384,64,84154,5,0
416,96,84321,5,2
169,120,84487,5,0
169,120,84571,5,2
169,120,84654,1,2
218,116,84821,5,0
218,116,84904,5,2
218,116,84987,1,2
265,126,85154,5,0
265,126,85237,5,2
265,126,85321,1,2
303,147,85487,5,0
303,147,85571,5,2
303,147,85654,1,2
340,172,85821,5,0
373,161,85987,5,2
373,161,86071,1,2
340,172,86154,5,0
373,161,86237,5,2
373,161,86321,1,2
405,203,86487,5,0
221,290,87154,1,0
142,224,87654,1,0
178,195,87821,5,2
261,186,88321,5,0
300,256,88654,1,0
366,152,88987,1,0
366,152,89154,5,2
208,96,89821,5,0
372,73,90321,1,0
372,73,90487,5,2
291,136,90987,5,0
336,182,91321,1,0
372,178,91654,1,0
372,178,91821,5,2
151,136,92487,5,0
231,236,92987,1,0
231,236,93154,5,2
246,115,93654,5,0
287,133,93987,1,0
333,151,94321,1,0
371,129,94487,5,2
210,235,94987,5,0
244,235,95154,1,0
244,235,95321,5,2
340,242,95654,5,0
340,242,95821,5,2
340,242,95987,1,2
410,196,96321,5,0
410,196,96487,1,0
410,196,96654,5,2
416,121,96987,5,0
416,121,97154,5,2
416,121,97321,1,2
188,160,97821,5,0
236,187,98321,1,0
236,187,98487,5,2
304,188,98821,5,0
339,218,98987,1,0
166,267,99487,1,0
248,268,99821,1,0
290,277,100154,1,0
360,292,100487,5,2
360,292,100571,5,0
360,292,100654,1,0
400,291,100821,1,0
403,196,101154,5,2
403,196,101237,5,0
403,196,101321,1,0
454,163,101487,1,0
388,114,101821,5,2
388,114,101904,5,0
388,114,101987,1,0
421,70,102154,1,0
344,71,102487,5,2
344,71,102571,5,0
344,71,102654,1,0
280,114,102821,1,0
32,64,103154,2,0,C|13:311|473:309|443:203|384:160,1,910
193,118,105821,1,0
193,118,105904,1,0
193,118,105987,1,0
239,151,106154,1,0
239,151,106237,1,0
239,151,106321,1,0
264,207,106487,1,0
264,207,106571,1,0
264,207,106654,1,0
264,207,106737,1,0
264,207,106821,1,0
321,179,106987,1,4
357,252,107321,1,4
397,239,107487,1,4
161,132,108487,5,2
219,152,108821,1,2
297,166,109154,1,2
301,267,109487,1,2
335,249,109654,1,2
164,242,109987,1,2
164,242,110071,1,2
164,242,110154,1,2
226,241,110487,1,2
89,140,111154,1,2
182,121,111487,1,2
143,169,111821,1,2
125,82,112154,1,2
161,64,112321,1,2
276,92,112654,1,2
276,92,112737,1,2
276,92,112821,1,2
329,126,112987,1,2
290,189,113154,1,2
412,87,113821,5,0
412,87,113987,5,2
412,87,114154,5,0
414,160,114487,1,0
414,160,114654,5,2
414,160,114821,5,0
394,234,115154,1,0
394,234,115321,5,2
394,234,115487,5,0
394,234,115654,5,2
394,234,115821,5,0
394,234,115987,5,2
394,234,116154,5,0
236,248,116487,1,0
158,285,116987,1,0
288,164,117821,1,4
305,248,117987,1,4
196,204,118321,1,4
127,196,118654,1,4
157,137,118987,1,4
364,164,119154,1,0
378,212,119321,1,0
378,212,119404,1,0
378,212,119487,5,2
312,160,119654,5,0
312,160,119821,5,2
351,104,119987,5,0
351,104,120071,5,0
351,104,120154,5,2
268,83,120321,5,0
440,46,120487,1,0
440,46,120571,1,0
440,46,120654,5,2
424,124,120821,5,0
424,124,120904,1,0
424,124,120987,5,2
424,124,121071,1,2
424,124,121154,5,0
427,173,121321,5,2
427,173,121404,1,2
427,173,121487,1,2
364,164,121821,5,0
378,212,121987,1,0
378,212,122071,1,0
378,212,122154,5,2
312,160,122321,5,0
312,160,122487,5,2
351,104,122654,5,0
351,104,122737,1,0
351,104,122821,5,2
268,83,122987,5,0
440,46,123154,1,0
440,46,123237,1,0
440,46,123321,5,2
424,124,123487,5,0
424,124,123571,1,0
424,124,123654,5,2
424,124,123737,1,2
424,124,123821,5,0
427,173,123987,5,2
427,173,124071,1,2
427,173,124154,1,2
339,180,124321,1,2
64,96,124487,5,0
160,160,124654,1,0
160,160,124737,1,0
160,160,124821,5,2
256,128,124987,5,0
224,96,125154,5,2
224,192,125321,5,0
224,192,125404,1,0
224,192,125487,5,2
288,224,125654,1,2
320,256,125821,5,0
352,192,125987,5,2
352,192,126071,1,2
352,192,126154,5,0
384,128,126321,5,2
384,128,126404,1,2
384,128,126487,5,0
216,109,126654,5,2
97,98,126737,1,2
153,63,126821,1,2
384,64,126987,1,2
448,96,127154,5,0
448,96,127237,1,0
448,96,127321,1,0
448,160,127487,5,2
448,160,127571,1,2
448,160,127654,1,2
448,192,127821,5,0
448,192,127904,1,0
448,192,127987,1,0
448,224,128154,5,2
448,224,128237,1,2
448,224,128321,1,2
448,256,128487,6,0,C|130:257|32:288,1,420
288,140,129821,1,0
305,114,129987,5,2
333,153,130154,5,0
350,120,130321,5,2
373,81,130487,5,0
373,81,130571,1,0
373,81,130654,5,2
422,86,130821,5,0
422,86,130904,1,0
422,86,130987,5,2
413,136,131154,5,0
401,182,131321,5,2
401,182,131404,1,2
401,182,131487,5,0
401,182,131571,1,0
401,182,131654,1,0
401,182,131737,1,0
401,182,131821,1,0
332,153,131987,5,2
267,190,132154,1,2
202,137,132487,5,0
202,137,132654,5,2
231,116,132821,5,0
231,116,132987,5,2
281,63,133154,5,0
281,63,133237,1,0
281,63,133321,5,2
348,81,133487,5,0
348,81,133571,1,0
348,81,133654,5,2
401,78,133821,5,0
331,138,133987,5,2
331,138,134071,1,2
331,138,134154,5,0
372,145,134321,5,2
372,145,134404,1,2
372,145,134487,5,0
286,208,134654,1,0
286,208,134737,1,0
286,208,134821,5,2
220,186,134987,1,2
377,230,135154,5,0
377,230,135321,5,2
377,230,135487,5,0
420,185,135654,5,2
460,120,135821,5,0
460,120,135904,1,0
460,120,135987,5,2
410,93,136154,5,0
410,93,136237,1,0
410,93,136321,5,2
364,104,136487,5,0
268,77,136654,5,2
268,77,136737,1,2
268,77,136821,5,0
268,77,136904,1,0
268,77,136987,1,0
268,77,137071,1,0
268,77,137154,1,0
252,123,137321,5,2
252,123,137404,1,2
252,123,137487,1,2
252,123,137654,1,2
311,224,137821,5,0
311,224,137904,1,0
311,224,137987,1,0
311,224,138071,5,2
311,224,138154,5,0
311,224,138237,1,0
311,224,138321,1,0
311,224,138404,5,2
311,224,138487,5,0
311,224,138571,1,0
311,224,138654,1,0
311,224,138737,1,0
311,224,138821,1,0
311,224,138904,1,0
311,224,138987,1,0
379,164,139321,1,4
397,204,139487,1,4
433,184,139654,1,4
412,137,139821,1,4
348,121,139987,5,2
348,121,140071,1,2
348,121,140154,1,2
348,121,140237,1,2
348,121,140321,1,2
200,156,140654,5,4
200,156,140821,1,4
252,199,140987,1,4
252,199,141154,1,4
407,188,141487,5,6
