osu file format v9

[General]
AudioFilename: angel dream.mp3
AudioLeadIn: 1996
PreviewTime: 54815
Countdown: 0
SampleSet: Soft
StackLeniency: 0.7
Mode: 1
LetterboxInBreaks: 1

[Editor]
DistanceSpacing: 1.2
BeatDivisor: 4
GridSize: 8

[Metadata]
Title:Angel Dream
Artist:Takamitsu Yoko
Creator:Ra-s
Version:Taiko Inner Oni (Tatsujin)
Source:Taiko no Tatsujin
Tags:

[Difficulty]
HPDrainRate:5
CircleSize:5
OverallDifficulty:5
ApproachRate:5
SliderMultiplier:1.4
SliderTickRate:1

[Events]
//Background and Video events
0,0,"BG.png"
//Break Periods
//Storyboard Layer 0 (Background)
//Storyboard Layer 1 (Fail)
//Storyboard Layer 2 (Pass)
//Storyboard Layer 3 (Foreground)
Sprite,Foreground,Centre,"lyrhare.png",320,435 M,0,12149,17482,320,435
Sprite,Foreground,Centre,"lyrtenshi.png",320,435 M,0,17482,22816,320,435
Sprite,Foreground,Centre,"lyrkaze.png",320,435 M,0,22816,28149,320,435
Sprite,Foreground,Centre,"lyryaku.png",320,435 M,0,33816,44482,320,435
Sprite,Foreground,Centre,"lyrshinkyu.png",320,435 M,0,44482,55149,320,435
Sprite,Foreground,Centre,"lyronaji.png",320,435 M,0,60482,65816,320,435
Sprite,Foreground,Centre,"lyrkimi.png",320,435 M,0,28149,33816,320,435
Sprite,Foreground,Centre,"lyrteto.png",320,435 M,0,55149,60482,320,435
Sprite,Foreground,Centre,"lyrmeto.png",320,435 M,0,65816,71149,320,435
Sprite,Foreground,Centre,"lyrkodo.png",320,435 M,0,71149,76482,320,435
Sprite,Foreground,Centre,"lyryuyake.png",320,435 M,0,87149,97816,320,435
Sprite,Foreground,Centre,"lyrashta.png",320,435 M,0,97816,108482,320,435
Sprite,Foreground,Centre,"lyrwish.png",320,435 M,0,108482,111149,320,435
Sprite,Foreground,Centre,"lyrangel.png",320,435 M,0,111149,113816,320,435
Sprite,Foreground,Centre,"lyrniji.png",320,435 M,0,113816,119149,320,435
Sprite,Foreground,Centre,"lyrteto.png",320,435 M,0,119149,124482,320,435
Sprite,Foreground,Centre,"lyraisat.png",320,435 M,0,124482,129816,320,435
Sprite,Foreground,Centre,"lyrmeto.png",320,435 M,0,129816,135149,320,435
Sprite,Foreground,Centre,"lyrkodo.png",320,435 M,0,135149,140149,320,435
//Storyboard Sound Samples
//Background Colour Transformations
3,100,255,179,255

[TimingPoints]
488,333.333333333333,4,2,0,100,1,0
55154,-100,4,2,0,100,0,1
76487,-100,4,2,0,100,0,0
119154,-100,4,2,0,100,0,1
121821,-83.3333333333333,4,2,0,100,0,1
124487,-66.6666666667,4,2,0,100,0,1
129821,166.666666666667,8,2,0,100,1,1
132487,-66.6666666667,8,2,0,100,0,1
135154,-50,8,2,0,100,0,1
141487,-50,8,2,0,100,0,1
141821,-50,8,2,0,100,0,0

[Colours]
Combo1 : 255,255,255
Combo2 : 255,128,255
Combo3 : 128,255,0
Combo4 : 0,128,255

[HitObjects]
64,40,488,1,2
64,40,571,5,2
64,40,654,1,2
120,40,821,1,2
120,40,904,1,2
120,40,987,1,2
176,40,1154,1,2
176,40,1237,1,2
176,40,1321,1,2
232,40,1487,1,2
232,40,1571,1,2
232,40,1654,1,2
232,40,1737,1,2
256,40,1821,5,0
24,24,3321,5,2
48,24,3404,1,2
72,24,3487,1,2
96,24,3571,1,2
120,24,3654,1,2
176,24,3821,1,2
200,24,3904,1,2
224,24,3987,1,2
248,24,4071,1,2
272,24,4154,1,2
328,24,4321,1,2
352,24,4404,1,2
376,24,4487,5,0
24,32,5987,5,2
48,32,6071,1,2
72,32,6154,5,0
96,32,6237,5,2
120,32,6321,1,2
176,32,6487,5,0
200,32,6571,5,2
224,32,6654,1,2
248,32,6737,1,2
272,32,6821,5,0
328,32,6987,5,2
352,32,7071,1,2
376,32,7154,5,0
432,32,7321,5,2
456,32,7404,1,2
480,32,7487,5,0
504,80,7654,5,2
448,80,7821,5,0
392,80,7987,5,2
336,80,8154,5,0
280,80,8321,5,2
224,80,8487,5,0
168,80,8654,5,2
136,80,8737,1,2
104,80,8821,5,0
72,80,8904,5,2
40,80,8987,1,2
16,128,9154,5,0
40,128,9237,1,0
64,128,9321,5,2
88,128,9404,1,2
112,128,9487,5,0
168,128,9654,5,2
192,128,9737,1,2
216,128,9821,5,0
272,128,9987,5,2
296,128,10071,1,2
320,128,10154,5,0
376,128,10321,5,2
432,128,10487,5,0
488,128,10654,1,0
504,176,10821,5,2
448,176,10987,5,0
336,176,11321,1,4
280,176,11488,1,4
224,176,11654,1,4
168,176,11821,1,4
56,176,12154,5,6
0,272,12488,5,0
56,272,12654,5,2
80,272,12738,1,2
104,272,12821,5,0
160,272,12988,5,2
216,272,13154,5,0
272,272,13321,5,2
296,272,13404,1,2
320,272,13488,5,0
376,272,13654,5,2
432,272,13821,5,0
488,272,13988,5,2
504,320,14154,5,0
448,320,14321,5,2
416,320,14404,1,2
384,320,14488,5,0
328,320,14654,5,2
296,320,14738,1,2
264,320,14821,1,2
208,320,14988,1,2
152,320,15154,5,0
96,320,15321,5,2
64,320,15404,1,2
32,320,15488,5,0
8,264,15654,5,2
64,264,15821,5,0
120,264,15988,5,2
144,264,16071,1,2
168,264,16154,5,0
224,264,16321,5,2
280,264,16488,5,0
336,264,16654,5,2
392,264,16821,5,0
448,264,16988,5,2
472,264,17071,1,2
496,264,17154,5,0
496,208,17321,5,2
464,208,17404,1,2
432,208,17488,5,0
376,208,17654,1,0
0,272,17821,1,0
56,272,17988,5,2
80,272,18071,1,2
104,272,18154,5,0
160,272,18321,5,2
216,272,18488,5,0
272,272,18654,5,2
296,272,18738,1,2
320,272,18821,5,0
376,272,18987,5,2
432,272,19154,5,0
488,272,19321,5,2
504,320,19487,5,0
448,320,19654,5,2
416,320,19737,1,2
384,320,19821,5,0
328,320,19987,5,2
296,320,20071,1,2
264,320,20154,1,2
208,320,20321,1,2
152,320,20487,5,0
96,320,20654,5,2
64,320,20737,1,2
32,320,20821,5,0
8,264,20987,5,2
32,264,21071,1,2
64,264,21154,5,0
120,264,21321,5,2
144,264,21404,1,2
168,264,21487,5,0
224,264,21654,5,2
248,264,21737,1,2
280,264,21821,5,0
336,264,21987,5,2
360,264,22071,1,2
448,264,22321,1,2
472,264,22404,1,2
496,208,22654,1,2
464,208,22737,1,2
432,208,22821,5,0
376,208,22987,1,0
320,208,23154,1,0
264,208,23321,5,2
232,208,23404,1,2
200,208,23487,5,0
144,208,23654,5,2
88,208,23821,5,0
32,208,23987,5,2
16,184,24071,1,2
40,168,24154,5,0
96,160,24321,5,2
152,160,24487,5,0
424,160,24654,5,2
448,160,24737,1,2
472,160,24821,5,0
496,160,24904,5,2
504,136,24987,1,2
448,112,25154,5,0
392,112,25321,5,2
360,112,25404,1,2
328,112,25487,1,2
296,112,25571,1,2
264,112,25654,1,2
208,112,25821,5,0
152,112,25987,5,2
120,112,26071,1,2
88,112,26154,5,0
32,112,26321,5,2
8,64,26487,5,0
64,64,26654,5,2
88,64,26737,1,2
112,64,26821,5,0
168,64,26987,1,2
224,64,27154,1,0
280,64,27321,5,2
304,64,27404,1,2
328,64,27487,5,0
352,64,27571,5,2
376,64,27654,1,2
432,64,27821,5,0
488,64,27987,5,2
504,40,28071,1,2
480,24,28154,5,0
448,24,28237,5,2
416,24,28321,5,0
320,208,28487,1,0
264,208,28654,5,2
232,208,28737,1,2
200,208,28821,5,0
144,208,28987,5,2
88,208,29154,5,0
32,208,29321,5,2
16,184,29404,1,2
40,168,29487,5,0
96,160,29654,5,2
152,160,29821,5,0
424,160,29987,5,2
448,160,30071,1,2
472,160,30154,5,0
496,160,30237,5,2
504,136,30321,1,2
448,112,30487,5,0
392,112,30654,5,2
360,112,30737,1,2
328,112,30821,1,2
296,112,30904,1,2
264,112,30987,1,2
208,112,31154,5,0
152,112,31321,5,2
120,112,31404,1,2
88,112,31487,5,0
32,112,31654,5,2
8,88,31737,1,2
8,64,31821,5,0
64,64,31987,5,2
88,64,32071,1,2
112,64,32154,5,0
168,64,32321,1,0
280,64,32654,5,2
304,64,32737,1,2
328,64,32821,5,0
384,64,32987,1,0
440,64,33154,5,2
464,64,33237,1,2
488,64,33321,5,0
504,8,33487,1,0
448,8,33654,1,0
392,8,33821,5,6
280,8,34154,1,2
168,8,34487,5,0
56,8,34821,5,2
8,40,34987,5,0
120,48,35321,1,0
176,48,35487,5,2
288,48,35821,5,0
344,48,35987,1,0
400,48,36154,5,2
424,48,36237,1,2
448,48,36321,1,2
504,48,36487,5,0
400,96,36821,5,2
288,96,37154,5,0
176,96,37487,5,2
120,96,37654,5,0
8,104,37987,1,0
56,136,38154,5,2
168,136,38487,5,0
224,136,38654,1,0
280,136,38821,5,2
304,136,38904,1,2
328,136,38987,1,2
384,136,39154,5,0
496,136,39487,5,2
392,184,39821,5,0
336,184,39988,1,0
280,184,40154,5,2
224,184,40321,5,0
112,184,40654,1,0
56,184,40821,5,2
160,224,41154,5,0
216,224,41321,1,0
272,224,41488,5,2
328,224,41654,5,0
384,224,41821,5,2
408,224,41904,1,2
432,224,41988,5,0
488,224,42154,1,0
384,272,42488,5,2
352,272,42571,5,0
320,272,42654,5,2
264,272,42821,5,0
152,272,43154,1,0
120,272,43238,1,0
88,272,43321,5,2
32,272,43488,5,0
136,312,43821,1,0
160,312,43904,5,2
184,312,43988,5,0
240,312,44154,1,0
384,136,44488,1,0
496,136,44821,5,2
392,184,45154,5,0
280,184,45488,5,2
224,184,45654,5,0
112,184,45988,1,0
56,184,46154,5,2
160,224,46488,5,0
216,224,46654,1,0
272,224,46821,5,2
328,224,46988,1,2
384,224,47154,1,2
408,224,47238,1,2
432,224,47321,5,0
488,224,47488,1,0
384,272,47821,5,2
352,272,47904,5,0
320,272,47988,5,2
264,272,48154,5,0
152,272,48488,1,0
120,272,48571,1,0
88,272,48654,5,2
32,272,48821,5,0
136,312,49154,1,0
160,312,49238,5,2
184,312,49321,5,0
240,312,49488,1,0
352,304,49821,1,0
408,304,49988,1,0
464,304,50154,5,2
488,352,50321,1,2
432,352,50488,5,0
376,352,50654,5,2
320,352,50821,1,2
264,360,50988,1,2
208,360,51154,5,0
152,360,51321,1,0
96,360,51488,5,2
40,360,51654,1,2
16,304,51821,5,0
72,304,51988,5,2
128,304,52154,1,2
184,304,52321,1,2
240,304,52488,5,0
264,304,52571,1,0
296,304,52654,1,0
352,304,52821,5,2
376,304,52904,1,2
400,304,52988,1,2
456,304,53154,5,0
480,304,53238,1,0
504,288,53321,5,2
456,256,53488,1,2
424,256,53571,1,2
392,256,53654,5,0
280,256,53988,1,4
224,256,54154,1,4
0,216,54821,5,6
8,32,55154,5,0
32,32,55238,1,0
56,32,55321,1,0
80,32,55404,1,0
104,32,55488,5,2
160,32,55654,1,2
216,32,55821,5,0
240,32,55904,1,0
264,32,55988,1,0
288,32,56071,1,0
312,32,56154,5,2
368,32,56321,1,2
392,32,56404,1,2
416,32,56488,5,0
472,32,56654,5,2
504,80,56821,5,0
472,80,56904,1,0
440,80,56988,1,0
384,80,57154,1,0
328,80,57321,5,6
272,80,57488,1,6
160,80,57821,5,0
128,80,57904,1,0
96,80,57988,5,2
64,80,58071,5,0
32,80,58154,5,2
8,128,58321,1,2
64,128,58488,5,0
88,128,58571,1,0
112,128,58654,5,2
136,128,58738,5,0
160,128,58821,5,2
216,128,58988,1,2
240,128,59071,1,2
264,128,59154,5,0
320,128,59321,5,2
376,128,59488,5,0
400,128,59571,1,0
424,128,59654,5,2
480,128,59821,5,0
504,176,59988,5,6
448,176,60154,1,6
8,32,60488,5,0
32,32,60571,1,0
56,32,60654,1,0
80,32,60738,1,0
104,32,60821,5,2
160,32,60988,1,2
216,32,61154,5,0
240,32,61238,1,0
264,32,61321,1,0
288,32,61404,1,0
312,32,61488,5,2
368,32,61654,1,2
392,32,61738,1,2
416,32,61821,5,0
472,32,61988,5,2
504,80,62154,5,0
472,80,62238,1,0
440,80,62321,1,0
384,80,62488,1,0
328,80,62654,5,6
272,80,62821,1,6
216,80,62988,5,0
184,80,63071,1,0
152,80,63154,5,2
40,80,63488,1,2
16,128,63654,5,0
72,128,63821,5,2
96,128,63904,1,2
120,128,63988,5,0
176,128,64154,5,2
232,128,64321,5,0
344,128,64654,1,0
400,128,64821,1,0
456,128,64988,5,2
504,160,65154,5,0
448,184,65321,5,6
392,184,65488,1,6
8,32,65821,5,0
32,32,65904,1,0
56,32,65988,1,0
80,32,66071,1,0
104,32,66154,5,2
160,32,66321,1,2
216,32,66488,5,0
240,32,66571,1,0
264,32,66654,1,0
288,32,66738,1,0
312,32,66821,5,2
368,32,66988,1,2
392,32,67071,1,2
416,32,67154,5,0
472,32,67321,5,2
440,32,67404,1,2
504,80,67488,5,0
472,80,67571,1,0
440,80,67654,1,0
384,80,67821,1,0
328,80,67988,5,6
272,80,68154,1,6
160,80,68488,5,0
128,80,68571,1,0
96,80,68654,5,2
64,80,68738,5,0
32,80,68821,5,2
8,128,68988,1,2
64,128,69154,5,0
88,128,69238,1,0
112,128,69321,5,2
136,128,69404,5,0
160,128,69488,5,2
216,128,69654,1,2
240,128,69738,1,2
264,128,69821,5,0
320,128,69988,5,2
288,128,70071,1,2
376,128,70154,5,0
400,128,70238,1,0
424,128,70321,5,2
480,128,70488,5,0
504,176,70654,5,6
448,176,70821,1,6
8,32,71154,5,0
32,32,71238,1,0
56,32,71321,1,0
80,32,71404,1,0
104,32,71488,5,2
160,32,71654,1,2
216,32,71821,5,0
240,32,71904,1,0
264,32,71988,1,0
288,32,72071,1,0
312,32,72154,5,2
368,32,72321,1,2
392,32,72404,1,2
416,32,72488,5,0
472,32,72654,5,2
496,48,72738,1,2
504,80,72821,5,0
472,80,72904,1,0
440,80,72988,1,0
384,80,73154,1,0
328,80,73321,5,6
272,80,73488,1,6
216,80,73654,5,0
184,80,73738,1,0
152,80,73821,5,2
40,80,74154,1,2
16,128,74321,5,0
72,128,74488,5,2
96,128,74571,1,2
120,128,74654,5,0
176,128,74821,5,2
232,128,74988,5,0
344,128,75321,1,4
400,128,75488,1,4
456,128,75654,5,6
504,160,75821,5,4
392,184,76154,5,6
16,24,76488,5,0
72,24,76654,5,2
128,24,76821,5,0
184,24,76988,5,2
240,24,77154,5,0
264,24,77238,1,0
288,24,77321,5,2
344,24,77488,5,0
400,24,77654,5,2
456,24,77821,5,0
488,64,77988,5,2
456,64,78071,1,2
424,64,78154,5,0
392,64,78238,5,2
360,64,78321,1,2
304,64,78488,5,0
272,64,78571,5,2
240,64,78654,1,2
208,64,78737,1,2
176,64,78821,5,0
120,64,78987,5,2
88,64,79071,1,2
56,64,79154,5,0
16,104,79321,5,2
72,104,79487,5,0
128,104,79654,5,2
184,104,79821,5,0
208,104,79904,1,0
232,104,79987,5,2
288,104,80154,5,0
344,96,80321,5,2
400,96,80487,5,0
456,96,80654,5,2
480,104,80737,1,2
496,128,80821,5,0
472,144,80904,5,2
440,144,80987,1,2
384,144,81154,5,0
352,144,81237,1,0
320,144,81321,5,2
288,144,81404,1,2
256,144,81487,5,0
200,144,81654,5,2
168,144,81737,1,2
16,24,81821,5,0
72,24,81987,5,2
128,24,82154,5,0
184,24,82321,5,2
240,24,82487,5,0
264,24,82571,1,0
288,24,82654,5,2
344,24,82821,5,0
400,24,82987,5,2
456,24,83154,5,0
488,64,83321,5,2
456,64,83404,1,2
424,64,83487,5,0
392,64,83571,5,2
360,64,83654,1,2
304,64,83821,5,0
272,64,83904,5,2
240,64,83987,1,2
208,64,84071,1,2
176,64,84154,5,0
120,64,84321,5,2
64,64,84487,5,0
32,64,84571,1,0
0,64,84654,5,2
32,104,84821,5,0
56,104,84904,1,0
80,104,84987,5,2
136,104,85154,5,0
160,104,85237,1,0
184,104,85321,5,2
240,104,85487,5,0
264,104,85571,1,0
288,104,85654,5,2
344,104,85821,5,0
368,104,85904,1,0
392,104,85987,5,2
416,104,86071,1,2
440,104,86154,1,2
496,104,86321,1,2
216,152,87154,5,0
48,152,87654,1,0
16,152,87737,1,0
8,176,87821,5,2
176,192,88321,5,0
288,192,88654,1,0
400,192,88987,1,0
456,192,89154,1,0
496,224,89321,1,0
440,240,89487,5,2
216,152,89821,5,0
48,152,90321,1,0
16,152,90404,1,0
8,176,90487,5,2
176,192,90987,5,0
288,192,91321,1,0
400,192,91654,1,0
456,192,91821,1,0
472,208,91904,1,0
496,224,91987,1,0
440,240,92154,5,2
216,152,92487,5,0
48,152,92987,1,0
16,152,93071,1,0
8,176,93154,5,2
176,192,93654,5,0
288,192,93987,1,0
400,192,94321,1,0
456,192,94487,1,0
496,224,94654,1,0
440,240,94821,5,2
328,240,95154,5,0
296,240,95237,1,0
264,240,95321,5,2
152,240,95654,5,0
96,240,95821,1,0
64,240,95904,5,2
32,240,95987,5,0
136,280,96321,1,0
192,280,96487,5,2
216,280,96571,1,2
240,280,96654,5,0
352,280,96987,1,0
408,280,97154,5,2
432,280,97237,5,0
456,280,97321,5,2
352,328,97654,5,0
296,328,97821,5,2
48,152,98321,5,0
16,152,98404,1,0
8,176,98487,5,2
120,192,98821,5,0
176,192,98987,1,0
288,192,99321,5,2
344,192,99487,5,0
456,192,99821,1,0
496,224,99987,1,0
440,240,100154,5,2
328,240,100487,5,0
296,240,100571,1,0
264,240,100654,5,2
152,240,100987,5,0
96,240,101154,1,0
64,240,101237,5,2
32,240,101321,5,0
136,280,101654,1,0
192,280,101821,5,2
216,280,101904,1,2
240,280,101987,5,0
352,280,102321,1,0
408,280,102487,5,2
432,280,102571,5,0
456,280,102654,5,2
352,328,102987,5,0
296,328,103154,1,0
240,328,103321,5,2
184,328,103487,5,0
128,328,103654,5,2
72,328,103821,5,0
16,304,103987,5,2
64,280,104154,5,0
88,280,104237,1,0
112,280,104321,5,2
168,280,104487,5,0
224,280,104654,5,2
280,280,104821,5,0
304,280,104904,1,0
328,280,104987,5,2
384,280,105154,5,0
440,280,105321,5,2
496,280,105487,5,0
504,248,105571,1,0
480,232,105654,5,2
424,232,105821,5,0
392,232,105904,1,0
360,232,105987,5,2
304,232,106154,5,0
272,232,106237,1,0
240,232,106321,5,2
184,232,106487,5,0
152,232,106571,1,0
120,232,106654,5,2
88,232,106737,1,2
56,232,106821,5,0
24,232,106904,1,0
16,200,106987,5,2
128,184,107321,5,4
184,184,107487,1,4
408,184,108154,5,6
504,128,108487,5,0
56,136,109821,1,4
152,88,110154,5,6
264,88,110487,5,4
488,88,111154,1,0
40,40,112487,1,4
152,40,112821,5,6
264,40,113154,1,6
488,40,113821,5,0
272,88,114487,1,0
48,88,115154,1,0
264,136,115821,1,0
488,128,116487,1,0
456,176,116654,5,2
400,176,116821,5,0
344,176,116987,5,2
288,176,117154,5,0
232,176,117321,5,2
176,176,117487,5,0
120,176,117654,1,0
88,176,117737,1,0
56,176,117821,1,0
16,216,117987,1,0
128,224,118321,1,0
240,224,118654,1,0
296,224,118821,5,2
352,224,118987,1,2
376,224,119071,1,2
400,224,119154,5,0
424,224,119237,5,2
448,224,119321,5,0
472,224,119404,1,0
496,224,119487,5,2
512,280,119654,1,2
456,280,119821,5,0
424,280,119904,5,2
392,280,119987,5,0
360,280,120071,1,0
328,280,120154,5,2
272,280,120321,1,2
240,280,120404,1,2
208,280,120487,5,0
152,280,120654,5,2
96,280,120821,5,0
64,280,120904,1,0
32,280,120987,5,2
32,280,121154,5,0
8,328,121321,5,6
64,328,121487,1,6
120,328,121654,1,2
144,328,121737,1,2
168,328,121821,5,0
192,328,121904,5,2
216,328,121987,1,2
240,328,122071,5,0
264,328,122154,5,2
320,328,122321,1,2
376,328,122487,5,0
400,328,122571,5,2
424,328,122654,1,2
448,328,122737,5,0
472,328,122821,5,2
504,376,122987,1,2
472,376,123071,1,2
440,376,123154,5,0
384,376,123321,5,2
328,376,123487,5,0
296,376,123571,5,2
264,376,123654,1,2
208,376,123821,5,0
152,376,123987,5,6
96,376,124154,1,6
352,224,124321,1,2
376,224,124404,1,2
400,224,124487,5,0
424,224,124571,5,2
448,224,124654,5,0
472,224,124737,1,0
496,224,124821,5,2
512,280,124987,1,2
456,280,125154,5,0
424,280,125237,5,2
392,280,125321,5,0
360,280,125404,1,0
328,280,125487,5,2
272,280,125654,1,2
240,280,125737,1,2
208,280,125821,5,0
152,280,125987,5,2
96,280,126154,5,0
64,280,126237,1,0
32,280,126321,5,2
32,280,126487,5,0
8,232,126654,5,6
64,232,126821,1,6
120,232,126987,5,0
144,232,127071,1,0
168,232,127154,5,2
280,232,127487,1,2
336,232,127654,5,0
392,232,127821,5,2
416,232,127904,1,2
440,232,127987,5,0
496,232,128154,5,2
456,184,128321,5,0
344,184,128654,1,0
288,184,128821,1,0
232,184,128987,5,2
176,184,129154,5,0
120,184,129321,5,6
64,184,129487,1,6
352,224,129654,1,2
376,224,129737,1,2
400,224,129821,5,0
424,224,129904,5,2
448,224,129987,5,0
472,224,130071,1,0
496,224,130154,5,2
512,280,130321,1,2
456,280,130487,5,0
424,280,130571,5,2
392,280,130654,5,0
360,280,130737,1,0
328,280,130821,5,2
272,280,130987,1,2
240,280,131071,1,2
208,280,131154,5,0
152,280,131321,5,2
120,280,131404,1,2
96,280,131487,5,0
64,280,131571,1,0
32,280,131654,5,2
32,280,131820,5,0
8,328,131987,5,6
64,328,132154,1,6
120,328,132320,1,2
144,328,132404,1,2
168,328,132487,5,0
192,328,132570,5,2
216,328,132654,1,2
240,328,132737,5,0
264,328,132820,5,2
320,328,132987,1,2
376,328,133154,5,0
400,328,133237,5,2
424,328,133320,1,2
448,328,133404,5,0
472,328,133487,5,2
504,280,133654,1,2
472,280,133737,1,2
440,280,133820,5,0
384,280,133987,5,2
352,280,134070,1,2
320,280,134154,5,0
288,280,134237,5,2
256,280,134320,1,2
200,280,134487,5,0
144,280,134654,5,6
88,280,134820,1,6
352,224,134987,1,2
376,224,135070,1,2
400,224,135154,5,0
424,224,135237,5,2
448,224,135320,5,0
472,224,135404,1,0
496,224,135487,5,2
512,280,135654,1,2
456,280,135820,5,0
424,280,135904,5,2
392,280,135987,5,0
360,280,136070,1,0
328,280,136154,5,2
272,280,136320,1,2
240,280,136404,1,2
208,280,136487,5,0
152,280,136654,5,2
120,280,136737,1,2
96,280,136820,5,0
64,280,136904,1,0
32,280,136987,5,2
32,280,137154,5,0
8,328,137320,5,6
64,328,137487,1,6
120,328,137654,5,0
144,328,137737,1,0
168,328,137820,5,2
280,328,138154,1,2
336,328,138320,5,0
392,328,138487,5,2
416,328,138570,1,2
440,328,138654,5,0
496,328,138820,5,2
496,272,138987,5,0
384,272,139320,1,0
328,272,139487,1,0
272,272,139654,5,2
216,272,139820,5,0
0,88,140654,1,4
56,88,140820,1,4
112,88,140987,5,6
168,88,141154,5,4
280,88,141487,5,6
