osu file format v9

[General]
AudioFilename: angel dream.mp3
AudioLeadIn: 1996
PreviewTime: 54815
Countdown: 0
SampleSet: Normal
StackLeniency: 0.7
Mode: 0
LetterboxInBreaks: 1

[Editor]
DistanceSpacing: 1.2
BeatDivisor: 4
GridSize: 8

[Metadata]
Title:Angel Dream
Artist:Takamitsu Yoko
Creator:Ra-s
Version:Normal
Source:Taiko no Tatsujin
Tags:

[Difficulty]
HPDrainRate:2
CircleSize:4
OverallDifficulty:3
ApproachRate:4
SliderMultiplier:1.2
SliderTickRate:1

[Events]
//Background and Video events
0,0,"BG.png"
//Break Periods
2,34021,40501
2,44688,48501
2,76354,84501
2,98021,101834
//Storyboard Layer 0 (Background)
//Storyboard Layer 1 (Fail)
//Storyboard Layer 2 (Pass)
//Storyboard Layer 3 (Foreground)
Sprite,Foreground,Centre,"lyrhare.png",320,435 M,0,12149,17482,320,435
Sprite,Foreground,Centre,"lyrtenshi.png",320,435 M,0,17482,22816,320,435
Sprite,Foreground,Centre,"lyrkaze.png",320,435 M,0,22816,28149,320,435
Sprite,Foreground,Centre,"lyryaku.png",320,435 M,0,33816,44482,320,435
Sprite,Foreground,Centre,"lyrshinkyu.png",320,435 M,0,44482,55149,320,435
Sprite,Foreground,Centre,"lyronaji.png",320,435 M,0,60482,65816,320,435
Sprite,Foreground,Centre,"lyrkimi.png",320,435 M,0,28149,33816,320,435
Sprite,Foreground,Centre,"lyrteto.png",320,435 M,0,55149,60482,320,435
Sprite,Foreground,Centre,"lyrmeto.png",320,435 M,0,65816,71149,320,435
Sprite,Foreground,Centre,"lyrkodo.png",320,435 M,0,71149,76482,320,435
Sprite,Foreground,Centre,"lyryuyake.png",320,435 M,0,87149,97816,320,435
Sprite,Foreground,Centre,"lyrashta.png",320,435 M,0,97816,108482,320,435
Sprite,Foreground,Centre,"lyrwish.png",320,435 M,0,108482,111149,320,435
Sprite,Foreground,Centre,"lyrangel.png",320,435 M,0,111149,113816,320,435
Sprite,Foreground,Centre,"lyrniji.png",320,435 M,0,113816,119149,320,435
Sprite,Foreground,Centre,"lyrteto.png",320,435 M,0,119149,124482,320,435
Sprite,Foreground,Centre,"lyraisat.png",320,435 M,0,124482,129816,320,435
Sprite,Foreground,Centre,"lyrmeto.png",320,435 M,0,129816,135149,320,435
Sprite,Foreground,Centre,"lyrkodo.png",320,435 M,0,135149,140149,320,435
//Storyboard Sound Samples
//Background Colour Transformations
3,100,255,179,255

[TimingPoints]
488,333.333333333333,4,1,0,50,1,0
55154,-100,4,1,0,50,0,1
76154,-100,4,1,0,50,0,0
108321,-100,4,1,0,25,0,0
109654,-100,4,1,0,50,0,0
110154,-100,4,1,0,25,0,0
110821,-100,4,1,0,50,0,0
111487,-100,4,1,0,25,0,0
113654,-100,4,1,0,50,0,0
114154,-100,4,1,0,24,0,0
114987,-100,4,1,0,50,0,0
115487,-100,4,1,0,25,0,0
115987,-100,4,1,0,33,0,0
116237,-100,4,1,0,50,0,0
119154,-100,4,1,0,50,0,1
141487,-100,4,1,0,50,0,0

[Colours]
Combo1 : 255,255,255
Combo2 : 255,128,255
Combo3 : 128,255,0
Combo4 : 0,128,255

[HitObjects]
256,192,1821,1,4
256,192,3154,1,0
256,192,4487,5,4
256,192,5821,5,0
496,192,6487,1,0
256,192,7154,6,0,B|224:256|264:320,1,120,12|0
401,307,7821,2,0,B|465:307,2,60,8|0|0
408,160,8487,2,0,B|440:96|400:32,1,120,8|0
272,104,9154,1,8
224,48,9321,1,0
176,104,9487,1,0
56,192,9821,6,0,B|56:328,1,120,12|0
200,312,10487,1,8
272,312,10654,1,0
240,248,10821,1,0
312,248,10987,1,0
448,192,11321,6,2,B|448:128,1,60
448,59,11654,2,2,B|376:59,1,60
243,59,12154,1,0
192,192,12488,6,0,B|144:192|192:288|120:288,2,120,12|0|8
336,192,13488,2,0,B|480:192,2,120,0|8|0
256,72,14488,2,0,B|320:72,2,60,8|0|0
112,72,15154,6,0,B|64:72|112:168|40:168,2,120,12|0|8
256,72,16154,1,0
256,72,16488,2,0,B|384:72,2,120,8|0|8
256,216,17488,5,0
192,184,17654,1,0
128,216,17821,1,12
192,344,18154,1,0
336,344,18488,2,0,B|400:336|448:264,1,120,8|0
435,209,18987,1,0
435,136,19154,2,0,B|499:136,2,60,8|0|0
290,136,19821,1,8
146,136,20154,1,0
16,192,20487,6,0,B|88:192,1,60,4|0
76,336,20987,2,0,B|76:272,1,60
220,276,21487,2,0,B|148:276,1,60,0|0
160,131,21987,2,0,B|160:195,1,60
448,192,22821,5,0
448,192,23154,2,0,B|448:56,2,120,12|0|8
304,192,24154,1,0
160,192,24487,2,0,B|136:256|168:336,1,120,8|0
227,331,24987,1,0
296,312,25154,2,0,B|320:248|296:168,1,120,8|0
440,192,25821,6,0,B|440:320,1,120,12|0
352,192,26487,2,0,B|352:64,1,120,8|0
280,72,26987,1,0
280,144,27154,2,0,B|264:208|176:224,2,120,8|0|8
416,192,28154,5,0
416,192,28487,2,0,B|432:128|520:112,2,120,12|0|8
416,336,29487,1,0
416,263,29654,1,0
343,263,29821,2,0,B|215:263,2,120,8|0|8
343,118,30821,5,0
343,189,30987,1,0
270,189,31154,2,0,B|134:189,1,120,12|0
150,333,31821,2,0,B|120:272|48:272,2,120,8|0|8
256,232,32821,1,0
256,88,33154,1,8
256,232,33487,1,0
256,376,33821,5,4
400,192,41821,6,0,B|472:192,2,60,2|0|0
256,192,42488,2,0,B|256:120,2,60,2|0|0
128,192,43154,2,0,B|56:192,2,60,2|0|0
256,264,43821,1,2
256,120,44154,1,0
256,264,44488,1,4
256,192,49821,12,0,52154
256,192,52488,6,0,B|192:192,2,60,12|0|0
312,144,52988,1,0
384,160,53154,2,0,B|448:160,2,60,8|0|0
384,232,53654,1,2
256,288,53988,1,2
184,288,54154,1,2
256,40,54821,5,0
400,40,55154,6,0,B|456:80|432:160,1,120,12|2
312,216,55821,1,8
352,280,55988,1,0
392,216,56154,1,2
352,352,56488,2,0,C|232:352,1,120,8|2
87,352,57154,2,0,C|87:288,2,60,8|0|2
231,352,57821,6,0,C|359:352,1,120,12|2
351,208,58488,2,0,B|415:208,2,60,8|0|2
256,96,59154,1,8
208,40,59321,1,0
160,96,59488,1,2
112,40,59654,1,0
64,96,59821,1,8
160,200,60154,1,2
72,312,60488,6,0,B|200:312,1,120,12|2
256,184,61154,2,0,B|384:184,1,120,8|2
376,328,61821,1,8
376,256,61988,1,0
303,256,62154,2,0,B|167:256,1,120,2|8
183,111,62821,1,2
326,111,63154,6,0,B|454:111,2,120,12|2|8
184,112,64154,1,2
184,112,64488,2,0,B|56:112,2,120,12|2|8
304,192,65488,1,2
256,248,65654,1,0
208,192,65821,1,12
256,56,66154,5,2
208,192,66488,2,0,B|80:192,1,120,8|2
256,248,67154,2,0,B|384:248,1,120,8|2
256,328,67821,1,8
316,365,67988,1,0
376,328,68154,1,2
496,248,68488,6,0,B|472:184|400:176,1,120,12|2
408,32,69154,2,0,B|280:32,2,120,8|2|8
408,104,69988,1,0
336,104,70154,2,0,B|208:104,1,120,2|8
71,104,70821,1,2
31,168,70988,1,0
71,232,71154,6,0,B|200:232,1,120,12|2
72,312,71821,2,0,B|120:360|200:352,2,120,8|2|8
72,152,72821,2,0,B|120:104|200:112,1,120,2|8
272,224,73488,5,2
200,240,73654,1,0
128,224,73821,2,0,B|96:288|136:360,1,120,12|2
270,340,74488,2,0,B|302:276|262:204,1,120,8|2
256,192,75154,12,4,76154
256,192,85821,12,4,87154
400,192,87821,6,0,B|400:64,1,120
256,72,88487,1,0
112,192,89154,6,0,B|112:320,1,120
256,312,89821,2,0,B|504:312,1,240,4|0
496,168,90821,1,0
496,168,91154,2,0,B|248:168,1,240
16,240,92487,6,0,B|264:240,1,240,4|0
400,240,93487,1,0
328,368,93821,2,0,B|328:120,1,240
184,128,94821,1,0
40,128,95154,6,0,B|40:48,2,60,2|0|0
40,272,95821,2,0,B|40:336,2,60,2|0|0
168,192,96487,2,0,B|232:192,2,60,2|0|0
16,192,97154,1,2
88,192,97321,1,0
128,256,97487,1,0
256,320,97821,5,4
256,192,103154,12,4,105821
472,192,106154,5,0
328,192,106487,1,0
184,192,106821,1,0
112,192,106987,1,2
0,280,107321,1,2
56,336,107487,2,0,B|184:336,1,120,2|0
256,216,108154,1,4
256,72,108487,6,0,B|392:40|312:208|448:168,1,240,4|0
256,312,109821,2,0,B|120:344|200:176|64:216,1,240,0|0
336,192,111154,5,4
32,192,112487,1,0
176,192,112821,1,0
256,72,113154,1,0
448,288,113821,6,0,B|448:160|328:160|336:304,1,240,4|0
64,288,115154,2,0,B|64:160|184:160|176:304,1,240,4|0
256,168,116154,1,0
256,96,116321,1,0
256,192,116487,12,4,117821
256,192,118321,5,2
256,192,118654,1,2
472,192,119154,6,0,B|472:64,2,120,12|2|8
360,288,120154,1,2
256,192,120487,2,0,B|192:224|120:184,2,120,8|2|8
256,119,121321,1,0
184,119,121487,2,0,B|56:120,1,120,2|12
64,264,122154,6,0,B|184:265,1,120,2|8
256,144,122821,1,2
328,265,123154,2,0,B|447:264,1,120,8|2
368,144,123821,1,8
312,96,123987,1,0
256,144,124154,1,2
144,240,124487,5,12
200,288,124654,1,0
256,240,124821,2,0,B|288:304|360:336,1,120,2|8
464,240,125487,2,0,B|328:240,1,120,2|8
256,144,126154,2,0,B|224:80|152:48,1,120,2|8
25,62,126821,1,2
25,62,126987,1,0
256,192,127154,12,12,129821
256,192,130154,5,2
112,192,130487,1,8
72,252,130654,1,0
112,312,130821,2,0,B|176:312,2,60,2|0|8
184,192,131487,1,2
328,192,131821,1,8
328,264,131987,1,0
256,264,132154,1,2
40,192,132487,6,0,B|40:320,1,120,12|2
112,192,133154,2,0,B|112:112,2,60,8|0|2
112,264,133654,1,0
112,264,133821,2,0,B|168:296|232:256,1,120,8|2
352,192,134487,1,8
296,144,134654,1,0
240,192,134821,1,2
256,48,135154,6,0,B|384:48,1,120,12|2
256,120,135821,2,0,B|392:120,1,120,8|2
440,80,136321,1,0
440,80,136487,2,0,B|472:136|440:200,1,120,8|2
336,272,137154,1,8
216,192,137487,5,2
72,192,137821,1,8
144,64,138154,1,2
144,64,138321,1,0
288,64,138654,1,0
360,88,138821,1,8
368,160,138987,1,0
256,248,139321,6,4,B|256:312,3,60
128,248,140154,1,0
256,80,140654,6,4,B|256:16,3,60
128,80,141487,1,0
